Правила форума

  • В этом разделе создание новых тем Запрещено.
  • Для создания новых тем пользуйтесь Корневым разделом DVD и HD фильмы.
Начать новую темуОтветить на тему  [ Сообщений: 4 ] 
Торрент файл
Размер: 9.2 GB • Зарегистрирован: 1 год 5 месяцев • Статус: Проверено
Скачан: 423 раза • Желающих скачать: 0 • Поблагодарили: 89 раз
 Раздают: 4  |  0 KB/s  ]   Качают: 0  |  0 KB/s  ] 
Сообщения
 Добавлено: 2015-06-29 09:56
RG-ELEKTRO
Аватара пользователя
Стаж: 2 года 3 месяца
Сообщений: 7928
Спасибок: 53781
Лайков: 3304
Ночной беглец / Run All Night


«Одна ночь, чтобы свести счёты»


Изображение


Год выпуска: 2015
Страна: США (Energy Entertainment, RatPac-Dune Entertainment, Vertigo Entertainment)
Жанр: боевик, триллер, драма, криминал, детектив
Продолжительность: 01:48:27
Перевод: Профессиональный (дубляж) [iTunes]

Режиссёр: Хауме Кольет-Серра
В ролях: Лиам Нисон, Юэль Киннаман, Дженезис Родригез, Бойд Холбрук, Винсент Д’Онофрио, Коммон, Эд Харрис, Холт МакКэллани, Брюс МакГилл, Бо Напп
Описание: Фильм расскажет историю киллера, вступившего в конфликт с бывшим боссом и в итоге вынужденного пуститься в бега, чтобы защитить свою семью от преследования мафией и властями.
Изображение Изображение
Качество: BDRip 1080p
Формат: MKV
Видео кодек: MPEG-4 AVC
Аудио кодек: AC3
Видео: MPEG-4 AVC, 10500 Кбит/с, 1920x800
Аудио #1: Russian: AC3, 6 ch, 384 Кбит/с - Дублированный [iTunes]
Аудио #2: English: AC3, 6 ch, 640 Кбит/с - Оригинал
Субтитры: Английские


"MI"
Общее
Уникальный идентификатор : 235370780909495521251906447763220180020 (0xB112C374A748FA42A5B538E46FDBAC34)
Полное имя : C:Run.All.Night.2015.BluRay.1080p.mkv
Формат : Matroska
Версия формата : Version 2
Размер файла : 9,20 Гбайт
Продолжительность : 1 ч. 54 м.
Общий поток : 11,5 Мбит/сек
Название фильма : Run.All.Night.2015.x264.D.(Line).BDRip.(720p)
Дата кодирования : UTC 2015-06-28 20:04:41
Программа кодирования : mkvmerge v7.9.0 ('Birds') 64bit
Библиотека кодирования : libebml v1.3.1 + libmatroska v1.4.2

Видео
Идентификатор : 1
Формат : AVC
Формат/Информация : Advanced Video Codec
Профиль формата : High@L4.1
Параметр CABAC формата : Да
Параметр ReFrames формата : 5 кадров
Идентификатор кодека : V_MPEG4/ISO/AVC
Продолжительность : 1 ч. 54 м.
Битрейт : 10,5 Мбит/сек
Ширина : 1920 пикселей
Высота : 800 пикселей
Соотношение сторон : 2,40:1
Режим частоты кадров : Постоянный
Частота кадров : 23,976 кадра/сек
Цветовое пространство : YUV
Субдискретизация насыщенности : 4:2:0
Битовая глубина : 8 бит
Тип развёртки : Прогрессивная
Бит/(Пиксели*Кадры) : 0.285
Размер потока : 8,20 Гбайт (89%)
Библиотека кодирования : x264 core 146 r2538 121396c
Настройки программы : cabac=1 / ref=5 / deblock=1:-2:-2 / analyse=0x3:0x33 / me=umh / subme=11 / psy=1 / psy_rd=1.09:0.00 / mixed_ref=1 / me_range=32 / chroma_me=1 / trellis=2 / 8x8dct=1 / cqm=0 / deadzone=21,11 / fast_pskip=0 / chroma_qp_offset=-2 / threads=12 / lookahead_threads=2 / sliced_threads=0 / nr=0 / decimate=0 / interlaced=0 / bluray_compat=0 / constrained_intra=0 / bframes=9 / b_pyramid=2 / b_adapt=2 / b_bias=0 / direct=3 / weightb=1 / open_gop=0 / weightp=2 / keyint=240 / keyint_min=23 / scenecut=40 / intra_refresh=0 / rc=2pass / mbtree=0 / bitrate=10500 / ratetol=1.0 / qcomp=0.60 / qpmin=0 / qpmax=69 / qpstep=4 / cplxblur=20.0 / qblur=0.5 / ip_ratio=1.40 / pb_ratio=1.30 / aq=3:0.60
Язык : English
Default : Да
Forced : Нет

Аудио #1
Идентификатор : 2
Формат : AC-3
Формат/Информация : Audio Coding 3
Расширение режима : CM (complete main)
Параметр Endianness формата : Big
Идентификатор кодека : A_AC3
Продолжительность : 1 ч. 54 м.
Вид битрейта : Постоянный
Битрейт : 384 Кбит/сек
Каналы : 6 каналов
Расположение каналов : Front: L C R, Side: L R, LFE
Частота : 48,0 КГц
Метод сжатия : С потерями
Размер потока : 314 Мбайт (3%)
Язык : Russian
Default : Да
Forced : Нет

Аудио #2
Идентификатор : 3
Формат : AC-3
Формат/Информация : Audio Coding 3
Расширение режима : CM (complete main)
Параметр Endianness формата : Big
Идентификатор кодека : A_AC3
Продолжительность : 1 ч. 54 м.
Вид битрейта : Постоянный
Битрейт : 640 Кбит/сек
Каналы : 6 каналов
Расположение каналов : Front: L C R, Side: L R, LFE
Частота : 48,0 КГц
Метод сжатия : С потерями
Размер потока : 523 Мбайт (6%)
Язык : English
Default : Нет
Forced : Нет

Текст
Идентификатор : 4
Формат : UTF-8
Идентификатор кодека : S_TEXT/UTF8
Идентификатор кодека/Информация : UTF-8 Plain Text
Язык : English
Default : Нет
Forced : Нет

Меню
00:00:00.000 : en:Chapter 01
00:09:02.750 : en:Chapter 02
00:20:32.231 : en:Chapter 03
00:29:24.220 : en:Chapter 04
00:41:17.308 : en:Chapter 05
00:50:29.776 : en:Chapter 06
01:01:35.900 : en:Chapter 07
01:10:56.585 : en:Chapter 08
01:19:52.078 : en:Chapter 09
01:34:14.398 : en:Chapter 10
01:39:08.609 : en:Chapter 11
01:48:38.386 : en:Chapter 12
Свернуть

Скриншоты
Изображение
Изображение
Изображение
Свернуть

Изображение


Изображение Изображение
_________________
Не ищите меня в "ВКонтакте", в "Одноклассниках" меня нет - я на трекерах сижу!
Не в сети
Профиль  
 Добавлено: 2015-08-03 21:30 (спустя 1 месяц 4 дня)
Стаж: 6 лет 9 месяцев
Возраст: 35
Сообщений: 22
Лайков: 6
Офигенный фильмец сняли!!! Никакие терминаторы и оттенки серого рядом не валялись!!!
Не в сети
Профиль  
 Добавлено: 2015-10-04 16:34 (спустя 2 месяца)
Стаж: 7 лет 11 месяцев
Сообщений: 24
Неплохой фильм.
Не в сети
Профиль  
 Добавлено: 2015-10-10 23:57 (спустя 6 дней)
Стаж: 7 лет 5 месяцев
Сообщений: 30
Спасибок: 17
Лайков: 6
Отличный фильм
Не в сети
Профиль  
Начать новую темуОтветить на тему  [ Сообщений: 4 ] 
Вы не можете начинать темы
Вы не можете отвечать на сообщения
Вы не можете редактировать свои сообщения
Вы не можете удалять свои сообщения