Правила форума

  • В этом разделе создание новых тем Запрещено.
  • Для создания новых тем пользуйтесь Корневым разделом DVD и HD фильмы.
Начать новую темуОтветить на тему  [ Сообщений: 5 ] 
Торрент файл
Размер: 6.32 GB • Зарегистрирован: 2 года 3 месяца • Статус: Проверено
Скачан: 99 раз • Желающих скачать: 0 • Поблагодарили: 14 раз
 Раздают: 1  |  0 KB/s  ]   Качают: 0  |  0 KB/s  ] 
Сообщения
 Добавлено: 2014-08-07 10:38
DVD Release Group
Аватара пользователя
Стаж: 7 лет 1 месяц
Сообщений: 3546
Спасибок: 246990
Лайков: 1018
Новый Человек-паук: Высокое напряжение

The Amazing Spider-Man 2: Rise of Electro


Изображение


Год выпуска: 2014
Страна: США
Жанр: Фэнтези, боевик, приключения
Продолжительность: 02:21:34
Перевод: Профессиональный (полное дублирование)
Субтитры: Русские, английские
Режиссер: Марк Уэбб
В ролях: Эндрю Гарфилд, Эмма Стоун, Джейми Фокс, Дэйн ДеХаан, Колм Фиор, Фелисити Джонс, Пол Джаматти, Салли Филд, Эмбет Дэвидц, Кэмпбелл Скотт
Описание: Питер Паркер под маской Человека-паука по-прежнему спасает мир от злодеев и преступников, а свободное время проводит со своей возлюбленной Гвен, но школьная пора близится к концу, и впереди героев ждет взрослая жизнь. Питер помнит о том, что дал отцу Гвен слово навсегда уйти из жизни девушки, тем самым больше не подвергая ее опасности. Однако сдержать это обещание не так просто. Судьба готовит Питеру сюрпризы: на его пути появится новый противник — Электро, а также ему будет суждено вновь встретиться с давним приятелем Гарри Озборном и узнать много нового о прошлом своей семьи.
Изображение
Sample:
http://sendfile.su/1009202
Качество: BDRip 720p 60fps
Формат: MKV
Видео кодек: H.264
Аудио кодек: AC3
Видео: 1280x534 59.94fps 5360kbps
Аудио:
Audio Rus: 48kHz 6ch 384kbps
Audio Eng: 48kHz 6ch 640kbps
"MediaInfo"
Формат : Matroska
Версия формата : Version 2
Размер файла : 6,32 Гбайт
Продолжительность : 2 ч. 21 м.
Общий поток : 6390 Кбит/сек
Название фильма : Новый Человек-паук: Высокое напряжение.(2014).BDRip.720p.[60fps]
Дата кодирования : UTC 2014-08-06 19:15:42
Программа кодирования : mkvmerge v5.8.0 ('No Sleep / Pillow') built on Sep 2 2012 15:37:04
Библиотека кодирования : libebml v1.2.3 + libmatroska v1.3.0

Видео
Идентификатор : 1
Формат : AVC
Формат/Информация : Advanced Video Codec
Профиль формата : High@L4.1
Параметр CABAC формата : Да
Параметр ReFrames формата : 9 кадров
Идентификатор кодека : V_MPEG4/ISO/AVC
Продолжительность : 2 ч. 21 м.
Битрейт : 5360 Кбит/сек
Ширина : 1280 пикселей
Высота : 534 пикселя
Соотношение сторон : 2,40:1
Режим частоты кадров : Постоянный
Частота кадров : 59,880 кадров/сек
Частота кадров в оригинале : 59,940 кадров/сек
Цветовое пространство : YUV
Субдискретизация насыщенности : 4:2:0
Битовая глубина : 8 бит
Тип развёртки : Прогрессивная
Бит/(Пиксели*Кадры) : 0.131
Размер потока : 5,18 Гбайт (82%)
Заголовок : Новый Человек-паук: Высокое напряжение.(2014).BDRip.720p.[envy].[60fps]
Библиотека кодирования : x264 core 130 r2273 b3065e6
Настройки программы : cabac=1 / ref=9 / deblock=1:0:0 / analyse=0x3:0x133 / me=umh / subme=10 / psy=1 / psy_rd=1.00:0.10 / mixed_ref=1 / me_range=28 / chroma_me=1 / trellis=2 / 8x8dct=1 / cqm=0 / deadzone=21,11 / fast_pskip=0 / chroma_qp_offset=-3 / threads=12 / lookahead_threads=1 / sliced_threads=0 / nr=0 / decimate=1 / interlaced=0 / bluray_compat=0 / constrained_intra=0 / bframes=6 / b_pyramid=2 / b_adapt=2 / b_bias=0 / direct=3 / weightb=1 / open_gop=0 / weightp=2 / keyint=250 / keyint_min=25 / scenecut=40 / intra_refresh=0 / rc=2pass / mbtree=0 / bitrate=5360 / ratetol=1.0 / qcomp=0.60 / qpmin=0 / qpmax=69 / qpstep=4 / cplxblur=20.0 / qblur=0.5 / ip_ratio=1.40 / pb_ratio=1.30 / aq=1:1.00
Язык : English
Default : Да
Forced : Нет

Аудио #1
Идентификатор : 2
Формат : AC-3
Формат/Информация : Audio Coding 3
Расширение режима : CM (complete main)
Параметр Endianness формата : Big
Идентификатор кодека : A_AC3
Продолжительность : 2 ч. 21 м.
Вид битрейта : Постоянный
Битрейт : 384 Кбит/сек
Каналы : 6 каналов
Расположение каналов : Front: L C R, Side: L R, LFE
Частота : 48,0 КГц
Битовая глубина : 16 бит
Метод сжатия : С потерями
Размер потока : 389 Мбайт (6%)
Заголовок : Dub (iTunes)
Язык : Russian
Default : Да
Forced : Нет

Аудио #2
Идентификатор : 3
Формат : AC-3
Формат/Информация : Audio Coding 3
Расширение режима : CM (complete main)
Параметр Endianness формата : Big
Идентификатор кодека : A_AC3
Продолжительность : 2 ч. 21 м.
Вид битрейта : Постоянный
Битрейт : 640 Кбит/сек
Каналы : 6 каналов
Расположение каналов : Front: L C R, Side: L R, LFE
Частота : 48,0 КГц
Битовая глубина : 16 бит
Метод сжатия : С потерями
Размер потока : 648 Мбайт (10%)
Заголовок : Eng
Язык : English
Default : Нет
Forced : Нет

Текст #1
Идентификатор : 4
Формат : UTF-8
Идентификатор кодека : S_TEXT/UTF8
Идентификатор кодека/Информация : UTF-8 Plain Text
Заголовок : full
Язык : Russian
Default : Нет
Forced : Нет

Текст #2
Идентификатор : 5
Формат : UTF-8
Идентификатор кодека : S_TEXT/UTF8
Идентификатор кодека/Информация : UTF-8 Plain Text
Заголовок : full
Язык : English
Default : Нет
Forced : Нет

Меню
00:00:00.000 : en:Chapter 1
00:07:05.341 : en:Chapter 2
00:14:28.200 : en:Chapter 3
00:20:13.837 : en:Chapter 4
00:29:27.098 : en:Chapter 5
00:39:02.590 : en:Chapter 6
00:50:56.803 : en:Chapter 7
00:59:52.755 : en:Chapter 8
01:08:53.129 : en:Chapter 9
01:16:19.950 : en:Chapter 10
01:25:27.705 : en:Chapter 11
01:35:23.259 : en:Chapter 12
01:41:30.334 : en:Chapter 13
01:49:18.343 : en:Chapter 14
01:57:00.638 : en:Chapter 15
02:04:44.351 : en:Chapter 16
Свернуть

"Скриншоты"
Изображение
Изображение
Изображение
Изображение
Изображение
Свернуть
Не в сети
Профиль  
 Добавлено: 2014-08-07 22:32 (спустя 11 часов)
Аватара пользователя
Стаж: 6 лет 5 месяцев
Сообщений: 19949
Спасибок: 721
Лайков: 461

rastor:

59.94fps
это значит в замедленном действии воспроизвадиццца буит на плеере? :du_ma_et:
_________________
It was I'am ... :jn_pu_sk:
Медали и Ордена
ИзображениеИзображение
Свернуть
Не в сети
Профиль  
 Добавлено: 2014-08-08 06:46 (спустя 8 часов)
DVD Release Group
Аватара пользователя
Стаж: 7 лет 1 месяц
Сообщений: 3546
Спасибок: 246990
Лайков: 1018
*ЖОРА*
Вам сколько лет? :hi_hi_hi:
Не в сети
Профиль  
 Добавлено: 2014-08-09 19:50 (спустя 1 день 13 часов)
Аватара пользователя
Стаж: 9 лет 1 месяц
Возраст: 33
Сообщений: 24
Лайков: 1
60 КАДРОВ В СЕКУНДУ ??? должна быть афигенная плавность картинки ))
Не в сети
Профиль  
 Добавлено: 2014-08-10 11:13 (спустя 15 часов)
Стаж: 8 лет 1 месяц
Сообщений: 22
Спасибок: 35
59.94fps --- такое качество надо выкладывать наверно с FULL HD. Чего поскромничали с разрешением? (1280x534)??
Не в сети
Профиль  
Начать новую темуОтветить на тему  [ Сообщений: 5 ] 
Вы не можете начинать темы
Вы не можете отвечать на сообщения
Вы не можете редактировать свои сообщения
Вы не можете удалять свои сообщения