Правила форума

  • В этом разделе создание новых тем Запрещено.
  • Для создания новых тем пользуйтесь Корневым разделом DVD и HD фильмы.
Начать новую темуОтветить на тему  [ Сообщений: 2 ] 
Торрент файл
Размер: 8.73 GB • Зарегистрирован: 5 лет • Статус: Проверено
Скачан: 23 раза • Желающих скачать: 0 • Поблагодарили: 10 раз
 Раздают: 0  |  0 KB/s  ]   Качают: 1  |  0 KB/s  ] 
 Полного источника не было 3 года 
Сообщения
 Добавлено: 2011-11-30 13:58
Top-releaser
Аватара пользователя
Стаж: 8 лет 1 месяц
Сообщений: 263
Спасибок: 3102

Новый Свет / The New World

(Extended Cut)

Слоган: «Once discovered, it was changed forever»
Изображение


Год выпуска: 2005
Страна: США, Великобритания (First Foot Films, New Line Cinema, Sarah Green Film Corp., Sunflower Productions LLC, The Virginia Company LLC)
Жанр: Драма, мелодрама, приключения, биография, история
Продолжительность: 02:51:50
Версия фильма: Extended cut / Расширенная версия
Перевод: Авторский одноголосый (Ю. Сербин)
Качество: BDRip (720p)
Формат: MKV
Видео кодек: AVC
Аудио кодек: AC3 (Dolby Digital)
Видео: AVC; 1280x544 (2.35:1); 5844 Kbps; 23,976 fps; 0,350 bpp
Аудио #1: Russian; AC3; 640 Kbps; CBR; 6 ch [Авторский одноголосый (Ю. Сербин)]
Аудио #2: English; AC3; 640 Kbps; CBR; 6 ch
Субтитры №1: English
Субтитры №2: Russian

Режиссёр: Терренс Малик
Сценарист: Терренс Малик
Продюсер: Сара Грин, Иван Бесс, Сандхия Шарданан
Оператор: Эммануэль Любецки
Композитор: Джеймс Хорнер
В ролях: Колин Фаррелл, Кристиан Бэйл, Кристофер Пламмер, К’Орианка Килчер, Уэс Студи, Дэвид Тьюлис, Ноа Тейлор, Бен Чаплин, Джонатан Прайс, Аугуст Шелленберг
Описание: Действие картины разворачивается в Америке XVII века, в поселении Джеймстаун. Уже пять тысяч лет Северная Америка представляет собой громадный материк, что полон бескрайних сохранивших свой первозданный облик пустынь, где обитает великое множество народов — представителей различных племенных культур. Им удалось найти общий язык и жить в божественной гармонии как с окружающим их миром, так и друг с другом. И нарушить эту гармонию может лишь одно — незваные гости из мира, неведомого им.

И они вот-вот нагрянут.

Весной 1607 года на эти земли, преодолев, казалось бы, непреодолимое расстояние, сойдут люди, чтобы положить начало новой духовно, культурно и экономически богатой жизни. В трюме одного из кораблей с чужеземцами молодой бунтарь Джон Смит ожидает исполнения своего приговора: на суше за неповиновение власти его ждет виселица. Смит — истинный воин, ветеран бесчисленных войн, герой, и удача и в этот раз не обделила его своей милостью: капитан кора*** освобождает его. Он понимает, что, дабы выжить в этом столь новом, диком и неизведанном для цивилизованного мира и столь древнем, привычном и святом для коренных жителей краю, колонистам понадобятся способности всех людей без исключения… особенно таких, как Смит.
Рейтинг MPAA: Рейтинг PG-13 (Дети до 13 лет допускаются на фильм только с родителями)
Награды и Номинации:
2005 — премия Национального совета кинокритиков США за лучшее прорывное исполнение женской роли (К'Орианка Килчер)
2006 — номинация на премию «Оскар» за лучшую операторскую работу (Эммануэль Любецки)
2006 — номинация на премию ALMA лучшей актрисе (К'Орианка Килчер)
2006 — премия Kodak Award кинофестиваля в Мар-дель-Плата (Эммануэль Любецки)
2006 — номинация на премию «Молодой актер» лучшей молодой актрисе (К'Орианка Килчер)
Свернуть
MediaInfo:
Общее
Уникальный идентификатор : 214398185945100343768667396012343244232 (0xA14B96B0ADA607F19262DD12209B35C8)
Полное имя : E:\Фильмы\Новый Свет. Режиссерская версия.mkv
Формат : Matroska
Версия формата : Version 2
Размер файла : 8,73 Гбайт
Продолжительность : 2 ч. 51 м.
Общий поток : 7269 Кбит/сек
Название фильма : The New World Extended Cut (2005) - Release for HDCLUB
Дата кодирования : UTC 2011-11-25 20:55:32
Программа кодирования : mkvmerge v3.4.0 ('Rapunzel') built on May 15 2010 09:38:20
Библиотека кодирования : libebml v0.8.0 + libmatroska v0.9.0
Attachment : Yes / Yes / Yes

Видео
Идентификатор : 1
Формат : AVC
Формат/Информация : Advanced Video Codec
Профиль формата : High@L4.1
Параметр CABAC формата : Да
Параметр ReFrames формата : 6 кадров
Идентификатор кодека : V_MPEG4/ISO/AVC
Продолжительность : 2 ч. 51 м.
Битрейт : 5987 Кбит/сек
Ширина : 1280 пикселей
Высота : 544 пикселя
Соотношение сторон : 2,35:1
Частота кадров : 23,976 кадра/сек
Цветовое пространство : YUV
Субдискретизация насыщенности : 4:2:0
Битовая глубина : 8 бит
Тип развёртки : Прогрессивная
Бит/(Пиксели*Кадры) : 0.359
Размер потока : 7,02 Гбайт (80%)
Заголовок : Release for HDCLUB
Библиотека кодирования : x264 core 76 r1271M 496d79d
Настройки программы : cabac=1 / ref=6 / deblock=1:-3:-3 / analyse=0x3:0x113 / me=umh / subme=9 / psy=1 / psy_rd=0.7:0.0 / mixed_ref=1 / me_range=48 / chroma_me=1 / trellis=2 / 8x8dct=1 / cqm=0 / deadzone=21,11 / chroma_qp_offset=-2 / threads=6 / nr=0 / decimate=0 / mbaff=0 / bframes=6 / b_pyramid=1 / b_adapt=2 / b_bias=0 / direct=3 / wpredb=1 / keyint=250 / keyint_min=25 / scenecut=40 / rc=2pass / mbtree=0 / bitrate=5987 / ratetol=1.0 / qcomp=0.60 / qpmin=10 / qpmax=51 / qpstep=4 / cplxblur=20.0 / qblur=0.5 / ip_ratio=1.40 / pb_ratio=1.30 / aq=1:0.80
Язык : English

Аудио #1
Идентификатор : 2
Формат : AC-3
Формат/Информация : Audio Coding 3
Расширение режима : CM (complete main)
Идентификатор кодека : A_AC3
Продолжительность : 2 ч. 51 м.
Вид битрейта : Постоянный
Битрейт : 640 Кбит/сек
Каналы : 6 каналов
Расположение каналов : Front: L C R, Side: L R, LFE
Частота : 48,0 КГц
Битовая глубина : 16 бит
Метод сжатия : С потерями
Размер потока : 787 Мбайт (9%)
Заголовок : AC3 5.1 @ 640 kbps - Одноголосый закадровый, Ю. Сербин
Язык : Russian

Аудио #2
Идентификатор : 3
Формат : AC-3
Формат/Информация : Audio Coding 3
Расширение режима : CM (complete main)
Идентификатор кодека : A_AC3
Продолжительность : 2 ч. 51 м.
Вид битрейта : Постоянный
Битрейт : 640 Кбит/сек
Каналы : 6 каналов
Расположение каналов : Front: L C R, Side: L R, LFE
Частота : 48,0 КГц
Битовая глубина : 16 бит
Метод сжатия : С потерями
Размер потока : 787 Мбайт (9%)
Заголовок : AC3 5.1 @ 640 kbps
Язык : English

Текст #1
Идентификатор : 4
Формат : ASS
Идентификатор кодека : S_TEXT/ASS
Идентификатор кодека/Информация : Advanced Sub Station Alpha
Метод сжатия : Без потерь
Язык : English

Текст #2
Идентификатор : 5
Формат : UTF-8
Идентификатор кодека : S_TEXT/UTF8
Идентификатор кодека/Информация : UTF-8 Plain Text
Язык : Russian

Меню
00:00:00.000 : en:00:00:00.000
00:03:34.131 : en:00:03:34.131
00:08:15.870 : en:00:08:15.870
00:13:57.545 : en:00:13:57.545
00:15:40.148 : en:00:15:40.148
00:20:45.327 : en:00:20:45.327
00:28:35.714 : en:00:28:35.714
00:33:15.076 : en:00:33:15.076
00:41:46.963 : en:00:41:46.963
00:52:59.218 : en:00:52:59.218
00:57:29.363 : en:00:57:29.363
01:05:47.443 : en:01:05:47.443
01:09:38.341 : en:01:09:38.341
01:20:42.755 : en:01:20:42.755
01:24:32.109 : en:01:24:32.109
01:31:55.677 : en:01:31:55.677
01:37:56.662 : en:01:37:56.662
01:43:19.151 : en:01:43:19.151
01:48:20.953 : en:01:48:20.953
01:52:50.847 : en:01:52:50.847
01:59:43.760 : en:01:59:43.760
02:16:54.790 : en:02:16:54.790
02:21:47.833 : en:02:21:47.833
02:25:42.150 : en:02:25:42.150
02:32:21.591 : en:02:32:21.591
02:36:10.152 : en:02:36:10.152
02:48:20.966 : en:02:48:20.966
Свернуть
Скриншоты:
Изображение
Изображение
Изображение
Изображение
Изображение
Свернуть

_________________
http://retracker.local/announce - Ретрекер для АДС(Билайн) (Добавляйте его чтобы была возможность качать со скоростью 100мб\сек)
Изображение


Последний раз редактировалось Jp 2011-12-03 13:51, всего редактировалось 2 раз(а).
Не в сети
Профиль  
 Добавлено: 2011-11-30 20:00 (спустя 6 часов)
Аватара пользователя
Стаж: 8 лет 3 месяца
Возраст: 43
Сообщений: 3290
Спасибок: 21012
Лайков: 3
Jp
Внимание: Для DVD и HD-разделов необходимы развернутые технические данные:
Для DVD: Отчет DVDInfo (под спойлером)
Для HD: Отчет BDInfo→ (после нажатия кнопки «scan bitrates» и окончания сканирования) или MediaInfo→ ( весь текст из режима view (вид) → text (текст).) (под спойлером)
Исправьте пожалуйста
Как все исправите, то сообщите пожалуйста в ЛС мне или любому модератору видео. Обязательно со ссылкой на релиз :)
_________________
Изображение
Не в сети
Профиль  
Начать новую темуОтветить на тему  [ Сообщений: 2 ] 
Вы не можете начинать темы
Вы не можете отвечать на сообщения
Вы не можете редактировать свои сообщения
Вы не можете удалять свои сообщения