Правила форума

  • В этом разделе создание новых тем Запрещено.
  • Для создания новых тем пользуйтесь Корневым разделом DVD и HD фильмы.
Начать новую темуОтветить на тему  [ 1 сообщение ] 
Торрент файл
Размер: 8.84 GB • Зарегистрирован: 3 года 8 месяцев • Статус: Проверено
Скачан: 24 раза • Желающих скачать: 0 • Поблагодарили: 15 раз
 Раздают: 0  |  0 KB/s  ]   Качают: 0  |  0 KB/s  ] 
 Полного источника не было 1 год 2 месяца 
Сообщения
 Добавлено: 2013-10-26 08:39
Модератор релиз-группы
Аватара пользователя
Стаж: 7 лет 8 месяцев
Возраст: 29
Сообщений: 9789
Спасибок: 23731
Лайков: 103
Изображение

Обещать – не значит жениться
He's Just Not That Into You


Год выпуска: 2008
Страна: США, Германия, Нидерланды
Слоган: «Are you the exception...or the rule?»
Жанр: драма, мелодрама, комедия
Продолжительность: 02:09:21
Перевод: Профессиональный (полное дублирование)
Режиссер: Кен Куопис
Сценарий: Эбби Кон, Марк Силверштейн, Грег Берендт, Лиз Туччило
Продюсер: Нэнси Джавонен, Дрю Бэрримор, Майкл Бегг, Майкл Диско, Тоби Эммерих
Оператор: Джон Бэйли
Композитор: Клифф Эйдельман
В ролях: Бен Аффлек, Дженнифер Энистон, Дженнифер Коннелли, Брэдли Купер, Джастин Лонг, Джиннифер Гудвин, Скарлетт Йоханссон, Дрю Бэрримор, Кевин Коннолли, Крис Кристофферсон, Морган Лили, Трентон Роджерс
Бюджет: $40 000 000
Сборы в США: $93 953 653
Сборы в России: $2 863 198
Сборы в мире: $177 259 441
Мировая премьера: 5 февраля 2009
Релиз на DVD: 9 июня 2009, «Юниверсал Пикчерс Рус»
Релиз на Blu-ray: 21 июля 2009, «Юниверсал Пикчерс Рус»
Описание: Фильм, события которого разворачиваются в Балтиморе, повествует о непростых отношениях мужчины и женщины, которые не всегда верно истолковывают намерения друг друга. Привлекательный мужчина не спешит расстаться со своим статусом холостяка, чем вызывает бурную реакцию своей влюбленной подружки.

Изображение User Rating: 7.192 (34 136)
Изображение User Rating: 6.30 (82 089)
MPAA: PG-13 - Детям до 13 лет просмотр не желателен
Раздача группы: Изображение
Релиз группы: Изображение
Качество: BDRip, 1080p
Формат: MKV
Видео: AVC; 1920x800 (2.40:1); 8309 Kbps; 23,976 fps; 0,226 bit/pixel
Аудио №1: AC3; 640 Kbps; CBR; 6 ch
Аудио №2: AC3; 640 Kbps; CBR; 6 ch

Субтитры №1: русские
Субтитры №2: английские

mediainfo
Общее
Уникальный идентификатор : 182519216973103088747347235253387704447 (0x894FEC2B8BCE60F096F1BA431276B87F)
Полное имя : D:\TORRENT\Obewat.ne.znachit.zhenitsja.2009.x264.BDRip.(1080p).kinozal.tv.mkv
Формат : Matroska
Размер файла : 8,84 Гбайт
Продолжительность : 2 ч. 9 м.
Общий поток : 9785 Кбит/сек
Дата кодирования : UTC 2009-06-14 04:23:04
Программа кодирования : mkvmerge v2.4.0 ('Fumbling Towards Ecstasy') built on Oct 11 2008 20:13:15
Библиотека кодирования : libebml v0.7.7 + libmatroska v0.8.1

Видео
Идентификатор : 1
Формат : AVC
Формат/Информация : Advanced Video Codec
Профиль формата : High@L4.1
Параметр CABAC формата : Да
Параметр ReFrames формата : 3 кадра
Идентификатор кодека : V_MPEG4/ISO/AVC
Продолжительность : 2 ч. 9 м.
Битрейт : 8500 Кбит/сек
Ширина : 1920 пикс.
Высота : 800 пикс.
Соотношение сторон : 2,40:1
Частота кадров : 23,976 кадр/сек
Цветовое пространство : YUV
Подвыборка цветности : 4:2:0
Битовая глубина : 8 бит
Тип развёртки : Прогрессивная
Бит/(Пиксели*Кадры) : 0.231
Размер потока : 7,51 Гбайт (85%)
Библиотека кодирования : x264 core 65 r999kMod cc51047
Настройки программы : cabac=1 / ref=3 / deblock=1:0:0 / analyse=0x3:0x133 / me=umh / subme=6 / psy_rd=1.0:0.0 / mixed_ref=1 / me_range=16 / chroma_me=1 / trellis=2 / 8x8dct=1 / cqm=0 / deadzone=21,11 / chroma_qp_offset=-2 / threads=4 / thread_queue=4 / nr=0 / decimate=1 / mbaff=0 / bframes=1 / b_pyramid=0 / b_adapt=1 / b_bias=0 / direct=0 / wpredb=1 / keyint=250 / keyint_min=25 / scenecut=40(pre) / rc=2pass / bitrate=8500 / ratetol=1.0 / qcomp=0.60 / qpmin=10 / qpmax=51 / qpstep=4 / cplxblur=20.0 / qblur=0.5 / ip_ratio=1.40 / pb_ratio=1.30 / aq=1:1.00

Аудио #1
Идентификатор : 2
Формат : AC-3
Формат/Информация : Audio Coding 3
Расширение режима : CM (complete main)
Идентификатор кодека : A_AC3
Продолжительность : 2 ч. 9 м.
Вид битрейта : Постоянный
Битрейт : 640 Кбит/сек
Каналы : 6 каналов
Расположение каналов : Front: L C R, Side: L R, LFE
Частота : 48,0 КГц
Битовая глубина : 16 бит
Метод сжатия : С потерями
Размер потока : 592 Мбайт (7%)

Аудио #2
Идентификатор : 3
Формат : AC-3
Формат/Информация : Audio Coding 3
Расширение режима : CM (complete main)
Идентификатор кодека : A_AC3
Продолжительность : 2 ч. 9 м.
Вид битрейта : Постоянный
Битрейт : 640 Кбит/сек
Каналы : 6 каналов
Расположение каналов : Front: L C R, Side: L R, LFE
Частота : 48,0 КГц
Битовая глубина : 16 бит
Метод сжатия : С потерями
Размер потока : 592 Мбайт (7%)

Текст #1
Идентификатор : 4
Формат : UTF-8
Идентификатор кодека : S_TEXT/UTF8
Идентификатор кодека/Информация : UTF-8 Plain Text

Текст #2
Идентификатор : 5
Формат : UTF-8
Идентификатор кодека : S_TEXT/UTF8
Идентификатор кодека/Информация : UTF-8 Plain Text
Свернуть
"Знаете ли Вы, что..."
  • Автор «Обещать - не значит жениться» - Грег Берендт, играет священника на свадьбе сестры Бэт.
Свернуть
Скриншоты

Изображение
Изображение
Изображение
Изображение
Изображение
Изображение
Изображение
Изображение
Свернуть


Тема поднималась пользователем volkov2009 2013-10-26 08:39.
Не в сети
Профиль  
Начать новую темуОтветить на тему  [ 1 сообщение ] 
Вы не можете начинать темы
Вы не можете отвечать на сообщения
Вы не можете редактировать свои сообщения
Вы не можете удалять свои сообщения