Правила форума

  • В этом разделе создание новых тем Запрещено.
  • Для создания новых тем пользуйтесь Корневым разделом DVD и HD фильмы.
Начать новую темуОтветить на тему  [ Сообщений: 4 ] 
Торрент файл
Размер: 9.2 GB • Зарегистрирован: 2 года • Статус: Проверено
Скачан: 398 раз • Желающих скачать: 0 • Поблагодарили: 117 раз
 Раздают: 1  |  0 KB/s  ]   Качают: 0  |  0 KB/s  ] 
Сообщения
 Добавлено: 2014-12-05 21:04
Аватара пользователя
Стаж: 9 лет 1 месяц
Сообщений: 7986
Спасибок: 122226
Лайков: 1191
Обитель проклятых / Stonehearst Asylum (Eliza Graves)

«No one is what they seem»

Изображение


Год выпуска: 2014
Страна: Изображение США
Жанр: триллер
Продолжительность: 01:52:40
Перевод: Профессиональный (полное дублирование) [Лицензия]


Режиссер: Брэд Андерсон
Сценарий: Джо Ганджеми, Эдгар Аллан По
Продюсер: Марк Эмин, Брюс Дэвей, Мэл Гибсон
Оператор: Том Яцко
Композитор: Джон Дебни

В ролях: Кейт Бекинсейл, Джим Стёрджесс, Бен Кингсли, Дэвид Тьюлис, Майкл Кейн, Брендан Глисон, Джейсон Флеминг, Софи Кеннеди Кларк, Шинейд Кьюсак, Гийом Делони

Описание: Молодой медицинский работник Эдвард устраивается работать в психиатрическую лечебницу. Вскоре становится известно об исчезновении одного из лечащих врачей психушки. Эдвард обнаруживает, что его похитили пациенты больницы, а вскоре и вся психушка оказывается захвачена ими…

Изображение Изображение

Раздача группы: Изображение

Качество: BDRip (1080p)
Формат: Matroska
Видео: MPEG-4 AVC, 9097 Кбит/с, 1920x800
Аудио №1: Русский (DTS, 48,0 КГц, 6 ch, 1510 Кбит/c)
Аудио №2: Русский (AC3, 48,0 КГц, 6 ch, 640 Кбит/c)
Аудио №3: Английский (AC3, 48,0 КГц, 6 ch, 448 Кбит/c)

MediaInfo
Формат : Matroska
Версия формата : Version 4 / Version 2
Размер файла : 9,20 Гбайт
Продолжительность : 1 ч. 52 м.
Общий поток : 11,7 Мбит/сек
Дата кодирования : UTC 2014-12-05 13:37:08
Программа кодирования : mkvmerge v7.3.0 ('Nouages') 64bit built on Oct 22 2014 18:53:34
Библиотека кодирования : libebml v1.3.0 + libmatroska v1.4.1
DURATION : 01:52:40.000000000
NUMBER_OF_FRAMES : 211250
NUMBER_OF_BYTES : 540800000
_STATISTICS_WRITING_APP : mkvmerge v7.3.0 ('Nouages') 64bit built on Oct 22 2014 18:53:34
_STATISTICS_WRITING_DATE_UTC : 2014-12-05 13:37:08
_STATISTICS_TAGS : BPS DURATION NUMBER_OF_FRAMES NUMBER_OF_BYTES

Видео
Идентификатор : 1
Формат : AVC
Формат/Информация : Advanced Video Codec
Профиль формата : High@L4.1
Параметр CABAC формата : Да
Параметр ReFrames формата : 5 кадров
Идентификатор кодека : V_MPEG4/ISO/AVC
Продолжительность : 1 ч. 52 м.
Битрейт : 9097 Кбит/сек
Ширина : 1920 пикселей
Высота : 800 пикселей
Соотношение сторон : 2,40:1
Режим частоты кадров : Постоянный
Частота кадров : 23,976 кадра/сек
Цветовое пространство : YUV
Субдискретизация насыщенности : 4:2:0
Битовая глубина : 8 бит
Тип развёртки : Прогрессивная
Бит/(Пиксели*Кадры) : 0.247
Размер потока : 6,98 Гбайт (76%)
Библиотека кодирования : x264 core 142 r2431 ac76440
Настройки программы : cabac=1 / ref=5 / deblock=1:-3:-3 / analyse=0x3:0x113 / me=umh / subme=10 / psy=1 / psy_rd=1.00:0.05 / mixed_ref=1 / me_range=32 / chroma_me=1 / trellis=2 / 8x8dct=1 / cqm=0 / deadzone=21,11 / fast_pskip=0 / chroma_qp_offset=-2 / threads=18 / lookahead_threads=1 / sliced_threads=0 / nr=0 / decimate=1 / interlaced=0 / bluray_compat=0 / constrained_intra=0 / bframes=4 / b_pyramid=2 / b_adapt=2 / b_bias=0 / direct=3 / weightb=1 / open_gop=0 / weightp=2 / keyint=250 / keyint_min=23 / scenecut=40 / intra_refresh=0 / rc=2pass / mbtree=0 / bitrate=9097 / ratetol=1.0 / qcomp=0.70 / qpmin=0 / qpmax=69 / qpstep=4 / cplxblur=20.0 / qblur=0.5 / ip_ratio=1.40 / pb_ratio=1.30 / aq=2:1.00
Язык : English
Default : Да
Forced : Нет
DURATION : 01:52:40.290000000
NUMBER_OF_FRAMES : 162085
NUMBER_OF_BYTES : 7683816066
_STATISTICS_WRITING_APP : mkvmerge v7.3.0 ('Nouages') 64bit built on Oct 22 2014 18:53:34
_STATISTICS_WRITING_DATE_UTC : 2014-12-05 13:37:08
_STATISTICS_TAGS : BPS DURATION NUMBER_OF_FRAMES NUMBER_OF_BYTES

Аудио #1
Идентификатор : 2
Формат : DTS
Формат/Информация : Digital Theater Systems
Режим : 16
Параметр Endianness формата : Big
Идентификатор кодека : A_DTS
Продолжительность : 1 ч. 52 м.
Вид битрейта : Постоянный
Битрейт : 1509 Кбит/сек
Каналы : 6 каналов
Расположение каналов : Front: L C R, Side: L R, LFE
Частота : 48,0 КГц
Битовая глубина : 16 бит
Метод сжатия : С потерями
Размер потока : 1,19 Гбайт (13%)
Язык : Russian
Default : Да
Forced : Да

Аудио #2
Идентификатор : 3
Формат : AC-3
Формат/Информация : Audio Coding 3
Расширение режима : CM (complete main)
Параметр Endianness формата : Big
Идентификатор кодека : A_AC3
Продолжительность : 1 ч. 52 м.
Вид битрейта : Постоянный
Битрейт : 640 Кбит/сек
Каналы : 6 каналов
Расположение каналов : Front: L C R, Side: L R, LFE
Частота : 48,0 КГц
Битовая глубина : 16 бит
Метод сжатия : С потерями
Размер потока : 516 Мбайт (5%)
Язык : Russian
Default : Нет
Forced : Нет

Аудио #3
Идентификатор : 4
Формат : AC-3
Формат/Информация : Audio Coding 3
Расширение режима : CM (complete main)
Параметр Endianness формата : Big
Идентификатор кодека : A_AC3
Продолжительность : 1 ч. 52 м.
Вид битрейта : Постоянный
Битрейт : 448 Кбит/сек
Каналы : 6 каналов
Расположение каналов : Front: L C R, Side: L R, LFE
Частота : 48,0 КГц
Битовая глубина : 16 бит
Метод сжатия : С потерями
Размер потока : 361 Мбайт (4%)
Заголовок : dd5.1 640k eng
Язык : English
Default : Нет
Forced : Нет

Меню
00:00:00.000 : en:00:00:00.000
00:09:14.888 : en:00:09:14.888
00:17:51.362 : en:00:17:51.362
00:27:37.906 : en:00:27:37.906
00:37:54.731 : en:00:37:54.731
00:45:40.696 : en:00:45:40.696
00:54:59.922 : en:00:54:59.922
01:03:44.029 : en:01:03:44.029
01:12:48.406 : en:01:12:48.406
01:22:12.427 : en:01:22:12.427
01:30:24.252 : en:01:30:24.252
01:48:23.122 : en:01:48:23.122
Свернуть
Знаете ли вы, что...
В основе сюжета лежит один из рассказов Эдгара Аллана По «Система доктора Смоля и профессора Перро».

Картина создавалась в Болгарии, и некоторые из ее сцен снимались в королевском дворце «Врана» на окраине Софии. Сейчас там живет Симеон II, последний болгарский монарх и бывший премьер-министр страны.

В моменте, когда Эдвард Ньюгейт кормит пожилую женщину, которая до этого отказывалась принимать пищу, она берет его за плечи. В следующем кадре, со спины героя, она держит его за голову. Далее при каждой смене кадра ошибка повторяется.

Свернуть
Скриншоты
Изображение
Изображение
Изображение
Свернуть
 sashannov нравится это.
Не в сети
Профиль  
 Добавлено: 2014-12-07 20:45 (спустя 1 день 23 часа)
Аватара пользователя
Стаж: 9 лет 1 месяц
Возраст: 31
Сообщений: 96
Спасибок: 31
Очень хороший фильм всем советую!
Всё таки Эдгар Аллан По гений)


Последний раз редактировалось KrutGot 2014-12-17 17:57, всего редактировалось 1 раз.
Не в сети
Профиль  
 Добавлено: 2014-12-08 19:01 (спустя 22 часа)
Аватара пользователя
Стаж: 8 лет 7 месяцев
Возраст: 37
Сообщений: 115
Спасибок: 191
Лайков: 2
Фильм очень неплохой, необычная задумка, актерский состав и их работа, концовка немного скомкана на мой взгляд.
Не в сети
Профиль  
 Добавлено: 2014-12-09 00:04 (спустя 5 часов)
Стаж: 3 года 10 месяцев
Сообщений: 187
Лайков: 61
Присоединяюсь к выше сказанному. Фильм действительно стоит посмотреть, так как сюжет необычен и игра актеров хороша, ну всех лучше выглядит она - главная героиня, Кейт Бекинсейл. Как же она всё таки прекрасна!
Не в сети
Профиль  
Начать новую темуОтветить на тему  [ Сообщений: 4 ] 
Вы не можете начинать темы
Вы не можете отвечать на сообщения
Вы не можете редактировать свои сообщения
Вы не можете удалять свои сообщения