Правила форума

  • В этом разделе создание новых тем Запрещено.
  • Для создания новых тем пользуйтесь Корневым разделом DVD и HD фильмы.
Начать новую темуОтветить на тему  [ 1 сообщение ] 
Торрент файл
Размер: 5.74 GB • Зарегистрирован: 3 года 11 месяцев • Статус: Проверено
Скачан: 80 раз • Желающих скачать: 0 • Поблагодарили: 21 раз
 Раздают: 0  |  0 KB/s  ]   Качают: 0  |  0 KB/s  ] 
 Полного источника не было 15 дней 
Сообщения
 Добавлено: 2012-12-06 23:40
Модератор
Аватара пользователя
Стаж: 6 лет 10 месяцев
Возраст: 33
Сообщений: 5908
Спасибок: 61245
Лайков: 3540
Изображение

Обитель зла: Возмездие
Resident Evil: Retribution


Год выпуска: 2012
Страна: Германия, Канада
Слоган: «Evil goes global»
Жанр: ужасы, фантастика, боевик, триллер
Продолжительность: 01:35:37
Перевод: Профессиональный (полное дублирование) [Лицензия]
Продюсер: Пол У. С. Андерсон, Джереми Болт, Дон Кармоди, Александр Досталь, Хартли Горенштейн
В ролях: Милла Йовович, Сиенна Гиллори, Мишель Родригес, Ариана Энджинир, Ли Бинбин, Борис Коджо, Йохан Урб, Робин Касянов, Кевин Дюран, Офилио Портильо, Одед Фер, Колин Сэлмон
Бюджет: $65 000 000
Сборы в США: $42 345 531
Сборы в России: $16 615 337
Сборы в мире: $221 545 531
Мировая премьера: 3 сентября 2012
Релиз на DVD: 17 декабря 2012, «Columbia/Sony»
Релиз на Blu-ray: 17 декабря 2012, «Columbia/Sony»
Описание: Смертельный T-вирус, созданный в лабораториях корпорации «Амбрелла», продолжает захватывать Землю, превращая мировое население в легионы пожирающих плоть зомби. Последняя надежда человечества Элис внедряется в самое сердце самой тайной исследовательской базы корпорации и узнает еще больше о собственном таинственном прошлом. Не имея путей к отступлению, Элис продолжает искать виновных в глобальной катастрофе. Вызов, который она принимала в Токио, Нью-Йорке, Вашингтоне и даже в Москве, приводит ее в итоге к взрывающему сознание откровению, которое заставит ее переосмыслить все, что она полагала правдой. С помощью новых союзников и старых друзей, Элис будет сражаться за выживание и убегать из враждебного мира. Отсчет времени начат.

Изображение User Rating: 5.435 (13 989)
Изображение User Rating: 5.60 (30 486)
MPAA: R - Лицам до 17 лет обязательно присутствие взрослого
Раздача группы: Изображение
Качество: BDRip 720p
Формат: mkv
Видео: MPEG-4 AVC, 5800 Кбит/с, 1280x534
Аудио №1: Русский, украинский (AC3, 6 ch, 640 Кбит/с), английский (DTS, 6 ch, 1510 Кбит/с)
"Медиаинфо"
    General
    Unique ID : 244250552888890377351579512237448520299 (0xB7C0F2040AE806938A5F098B15D8626B)
    Complete name : Obitel.zla.Vozmezdie.2012.D.BDRip.720p.IRONCLUB.mkv
    Format : Matroska
    Format version : Version 2
    File size : 5.74 GiB
    Duration : 1h 35mn
    Overall bit rate : 8 591 Kbps
    Movie name : IRONCLUB
    Encoded date : UTC 2012-12-06 19:18:57
    Writing application : mkvmerge v5.2.0 ('I can't explain') built on Dec 18 2011 18:12:03
    Writing library : libebml v1.2.3 + libmatroska v1.3.0

    Video
    ID : 1
    Format : AVC
    Format/Info : Advanced Video Codec
    Format profile : High@L4.1
    Format settings, CABAC : Yes
    Format settings, ReFrames : 12 frames
    Codec ID : V_MPEG4/ISO/AVC
    Duration : 1h 35mn
    Bit rate : 5 800 Kbps
    Width : 1 280 pixels
    Height : 534 pixels
    Display aspect ratio : 2.40:1
    Frame rate : 23.976 fps
    Color space : YUV
    Chroma subsampling : 4:2:0
    Bit depth : 8 bits
    Scan type : Progressive
    Bits/(Pixel*Frame) : 0.354
    Stream size : 3.76 GiB (66%)
    Title : Resident.Evil.Retribution.2012.720p.BluRay.x264.DTS-HDChina
    Writing library : x264 core 129 r2230+696+36 4446aa2 tMod+MixAQ [8-bit@4:2:0 X86_64]
    Encoding settings : cabac=1 / ref=12 / deblock=1:-3:-3 / analyse=0x3:0x113 / me=umh / subme=10 / psy=1 / fade_compensate=0.00 / psy_rd=1.10:0.00 / mixed_ref=1 / me_range=32 / chroma_me=1 / trellis=2 / 8x8dct=1 / cqm=0 / deadzone=21,11 / fast_pskip=0 / chroma_qp_offset=-2 / threads=18 / lookahead_threads=3 / sliced_threads=0 / nr=0 / decimate=0 / interlaced=0 / bluray_compat=0 / constrained_intra=0 / fgo=0 / bframes=8 / b_pyramid=2 / b_adapt=2 / b_bias=0 / direct=3 / weightb=1 / open_gop=0 / weightp=2 / keyint=240 / keyint_min=24 / scenecut=40 / intra_refresh=0 / rc_lookahead=240 / rc=2pass / mbtree=1 / bitrate=5800 / ratetol=1.0 / qcomp=0.70 / qpmin=0 / qpmax=69 / qpstep=4 / cplxblur=20.0 / qblur=0.5 / ip_ratio=1.10 / aq=4 / aq-strength=0.90 / aq-sensitivity=10.00 / aq-ifactor=1.00 / aq-pfactor=1.00 / aq-bfactor=1.00 / aq2=0
    Language : English
    Default : Yes
    Forced : Yes

    Audio #1
    ID : 2
    Format : AC-3
    Format/Info : Audio Coding 3
    Mode extension : CM (complete main)
    Format settings, Endianness : Big
    Codec ID : A_AC3
    Duration : 1h 35mn
    Bit rate mode : Constant
    Bit rate : 640 Kbps
    Channel(s) : 6 channels
    Channel positions : Front: L C R, Side: L R, LFE
    Sampling rate : 48.0 KHz
    Bit depth : 16 bits
    Compression mode : Lossy
    Stream size : 438 MiB (7%)
    Title : DD 5.1 @ 640 kbps - Dub, BD CEE
    Language : Russian
    Default : Yes
    Forced : Yes

    Audio #2
    ID : 3
    Format : AC-3
    Format/Info : Audio Coding 3
    Mode extension : CM (complete main)
    Format settings, Endianness : Big
    Codec ID : A_AC3
    Duration : 1h 35mn
    Bit rate mode : Constant
    Bit rate : 640 Kbps
    Channel(s) : 6 channels
    Channel positions : Front: L C R, Side: L R, LFE
    Sampling rate : 48.0 KHz
    Bit depth : 16 bits
    Compression mode : Lossy
    Stream size : 438 MiB (7%)
    Title : DD 5.1 @ 640 kbps - Dub, BD CEE
    Language : Ukrainian
    Default : No
    Forced : No

    Audio #3
    ID : 4
    Format : DTS
    Format/Info : Digital Theater Systems
    Codec ID : A_DTS
    Duration : 1h 35mn
    Bit rate mode : Constant
    Bit rate : 1 510 Kbps
    Channel(s) : 6 channels
    Channel positions : Front: L C R, Side: L R, LFE
    Sampling rate : 48.0 KHz
    Bit depth : 24 bits
    Compression mode : Lossy
    Stream size : 1.01 GiB (18%)
    Title : DTS 5.1 @ 1536 kbps
    Language : English
    Default : No
    Forced : No

    Text #1
    ID : 5
    Format : UTF-8
    Codec ID : S_TEXT/UTF8
    Codec ID/Info : UTF-8 Plain Text
    Language : Russian
    Default : No
    Forced : No

    Text #2
    ID : 6
    Format : UTF-8
    Codec ID : S_TEXT/UTF8
    Codec ID/Info : UTF-8 Plain Text
    Language : English
    Default : No
    Forced : No

    Menu
    00:00:00.000 : en:00:00:00.000
    00:07:43.046 : en:00:07:43.046
    00:14:32.538 : en:00:14:32.538
    00:21:38.839 : en:00:21:38.839
    00:25:39.329 : en:00:25:39.329
    00:29:31.186 : en:00:29:31.186
    00:34:16.846 : en:00:34:16.846
    00:39:14.769 : en:00:39:14.769
    00:45:29.435 : en:00:45:29.435
    00:50:27.441 : en:00:50:27.441
    00:54:42.070 : en:00:54:42.070
    01:00:14.861 : en:01:00:14.861
    01:05:38.476 : en:01:05:38.476
    01:11:22.904 : en:01:11:22.904
    01:16:15.571 : en:01:16:15.571
    01:21:29.384 : en:01:21:29.384
    01:21:29.384 : en:01:21:29.384
Свернуть
"Знаете ли Вы, что..."
  • Дженсен Эклс пробовался на роль Леона Кеннеди, но позже её получил Йохан Урб.
  • Ариана Энджинир получила роль Бекки без прослушивания.
Свернуть
Скриншоты

Изображение
Изображение
Изображение
Изображение
Изображение
Свернуть
_________________
ИзображениеИзображение Изображение
Изображение
 tany1984 и di-ys1 нравится это.
Не в сети
Профиль  
Начать новую темуОтветить на тему  [ 1 сообщение ] 
Вы не можете начинать темы
Вы не можете отвечать на сообщения
Вы не можете редактировать свои сообщения
Вы не можете удалять свои сообщения