Правила форума

  • В этом разделе создание новых тем Запрещено.
  • Для создания новых тем пользуйтесь Корневым разделом DVD и HD фильмы.
Начать новую темуОтветить на тему  [ Сообщений: 5 ] 
Торрент файл
Размер: 19.37 GB • Зарегистрирован: 4 года • Статус: Проверено
Скачан: 73 раза • Желающих скачать: 0 • Поблагодарили: 35 раз
 Раздают: 0  |  0 KB/s  ]   Качают: 0  |  0 KB/s  ] 
 Полного источника не было 3 месяца 12 дней 
Сообщения
 Добавлено: 2012-12-07 07:17
Модератор
Аватара пользователя
Стаж: 6 лет 10 месяцев
Возраст: 33
Сообщений: 5908
Спасибок: 61259
Лайков: 3540
Изображение

Обитель зла: Возмездие
Resident Evil: Retribution


Год выпуска: 2012
Страна: Германия, Канада
Слоган: «Evil goes global»
Жанр: ужасы, фантастика, боевик, триллер
Продолжительность: 01:35:38
Перевод: Профессиональный (полное дублирование) [Лицензия]
Продюсер: Пол У. С. Андерсон, Джереми Болт, Дон Кармоди, Александр Досталь, Хартли Горенштейн
В ролях: Милла Йовович, Сиенна Гиллори, Мишель Родригес, Ариана Энджинир, Ли Бинбин, Борис Коджо, Йохан Урб, Робин Касянов, Кевин Дюран, Офилио Портильо, Одед Фер, Колин Сэлмон
Бюджет: $65 000 000
Сборы в США: $42 345 531
Сборы в России: $16 615 337
Сборы в мире: $221 545 531
Мировая премьера: 3 сентября 2012
Релиз на DVD: 17 декабря 2012, «Columbia/Sony»
Релиз на Blu-ray: 17 декабря 2012, «Columbia/Sony»
Описание: Смертельный T-вирус, созданный в лабораториях корпорации «Амбрелла», продолжает захватывать Землю, превращая мировое население в легионы пожирающих плоть зомби. Последняя надежда человечества Элис внедряется в самое сердце самой тайной исследовательской базы корпорации и узнает еще больше о собственном таинственном прошлом. Не имея путей к отступлению, Элис продолжает искать виновных в глобальной катастрофе. Вызов, который она принимала в Токио, Нью-Йорке, Вашингтоне и даже в Москве, приводит ее в итоге к взрывающему сознание откровению, которое заставит ее переосмыслить все, что она полагала правдой. С помощью новых союзников и старых друзей, Элис будет сражаться за выживание и убегать из враждебного мира. Отсчет времени начат.

Изображение User Rating: 5.435 (13 989)
Изображение User Rating: 5.60 (30 486)
MPAA: R - Лицам до 17 лет обязательно присутствие взрослого
Раздача группы: Изображение
Качество: BDRemux 1080р
Формат: mkv
Видео: MPEG-4 AVC, 23.4 Mбит/с, 1920x1080
Аудио №1: Русский, украинский (AC3, 6 ch, 640 Кбит/с), английский (DTS-HD, 6 ch, 3360 Кбит/с), (AC3, 2 ch, 192 Кбит/с)
"Медиаинфо"
    Общее
    Уникальный идентификатор : 222080493528476246439620809190068477439 (0xA71325B28243AE0FBE7FEF7665905DFF)
    Полное имя : D:\Films\Resident_Evil_Retribution.2012.1080p.BDRemux.mkv
    Формат : Matroska
    Версия формата : Version 2
    Размер файла : 19,4 Гбайт
    Продолжительность : 1 ч. 35 м.
    Режим общего битрейта : Переменный
    Общий поток : 29,0 Мбит/сек
    Название фильма : Resident Evil: Retribution
    Дата кодирования : UTC 2012-12-07 21:04:12
    Программа кодирования : mkvmerge v5.2.0 ('I can't explain') built on Dec 18 2011 18:12:03
    Библиотека кодирования : libebml v1.2.3 + libmatroska v1.3.0

    Видео
    Идентификатор : 1
    Формат : AVC
    Формат/Информация : Advanced Video Codec
    Профиль формата : High@L4.1
    Параметр CABAC формата : Да
    Параметр ReFrames формата : 2 кадра
    Параметр GOP формата : M=1, N=10
    Идентификатор кодека : V_MPEG4/ISO/AVC
    Продолжительность : 1 ч. 35 м.
    Вид битрейта : Переменный
    Битрейт : 25,2 Мбит/сек
    Ширина : 1920 пикселей
    Высота : 1080 пикселей
    Соотношение сторон : 16:9
    Частота кадров : 23,976 кадра/сек
    Цветовое пространство : YUV
    Субдискретизация насыщенности : 4:2:0
    Битовая глубина : 8 бит
    Тип развёртки : Прогрессивная
    Бит/(Пиксели*Кадры) : 0.507
    Размер потока : 16,8 Гбайт (87%)
    Язык : English
    Default : Да
    Forced : Нет

    Аудио #1
    Идентификатор : 2
    Формат : AC-3
    Формат/Информация : Audio Coding 3
    Расширение режима : CM (complete main)
    Идентификатор кодека : A_AC3
    Продолжительность : 1 ч. 35 м.
    Вид битрейта : Постоянный
    Битрейт : 640 Кбит/сек
    Каналы : 6 каналов
    Расположение каналов : Front: L C R, Side: L R, LFE
    Частота : 48,0 КГц
    Битовая глубина : 16 бит
    Метод сжатия : С потерями
    Размер потока : 438 Мбайт (2%)
    Заголовок : DUB EUR
    Язык : Russian
    Default : Да
    Forced : Нет

    Аудио #2
    Идентификатор : 3
    Формат : AC-3
    Формат/Информация : Audio Coding 3
    Расширение режима : CM (complete main)
    Идентификатор кодека : A_AC3
    Продолжительность : 1 ч. 35 м.
    Вид битрейта : Постоянный
    Битрейт : 640 Кбит/сек
    Каналы : 6 каналов
    Расположение каналов : Front: L C R, Side: L R, LFE
    Частота : 48,0 КГц
    Битовая глубина : 16 бит
    Метод сжатия : С потерями
    Размер потока : 438 Мбайт (2%)
    Заголовок : DUB EUR
    Язык : Ukrainian
    Default : Нет
    Forced : Нет

    Аудио #3
    Идентификатор : 4
    Формат : DTS
    Формат/Информация : Digital Theater Systems
    Профиль формата : MA / Core
    Идентификатор кодека : A_DTS
    Продолжительность : 1 ч. 35 м.
    Вид битрейта : Переменный
    Битрейт : 1561 Кбит/сек / 1510 Кбит/сек
    Каналы : 6 каналов
    Расположение каналов : Front: L C R, Side: L R, LFE
    Частота : 48,0 КГц
    Битовая глубина : 24 бит
    Метод сжатия : Без потерь / Lossy
    Заголовок : Lossless
    Язык : English
    Default : Нет
    Forced : Нет

    Аудио #4
    Идентификатор : 5
    Формат : AC-3
    Формат/Информация : Audio Coding 3
    Профиль формата : Dolby Digital
    Расширение режима : CM (complete main)
    Идентификатор кодека : A_AC3
    Продолжительность : 1 ч. 35 м.
    Вид битрейта : Постоянный
    Битрейт : 192 Кбит/сек
    Каналы : 2 канала
    Расположение каналов : Front: L R
    Частота : 48,0 КГц
    Битовая глубина : 16 бит
    Метод сжатия : С потерями
    Размер потока : 131 Мбайт (1%)
    Заголовок : Commentary
    Язык : English
    Default : Нет
    Forced : Нет

    Аудио #5
    Идентификатор : 6
    Формат : AC-3
    Формат/Информация : Audio Coding 3
    Профиль формата : Dolby Digital
    Расширение режима : CM (complete main)
    Идентификатор кодека : A_AC3
    Продолжительность : 1 ч. 35 м.
    Вид битрейта : Постоянный
    Битрейт : 192 Кбит/сек
    Каналы : 2 канала
    Расположение каналов : Front: L R
    Частота : 48,0 КГц
    Битовая глубина : 16 бит
    Метод сжатия : С потерями
    Размер потока : 131 Мбайт (1%)
    Заголовок : Commentary
    Язык : English
    Default : Нет
    Forced : Нет

    Текст #1
    Идентификатор : 7
    Формат : UTF-8
    Идентификатор кодека : S_TEXT/UTF8
    Идентификатор кодека/Информация : UTF-8 Plain Text
    Заголовок : R5
    Язык : Russian
    Default : Нет
    Forced : Нет

    Текст #2
    Идентификатор : 8
    Формат : PGS
    Режим смешивания : zlib
    Идентификатор кодека : S_HDMV/PGS
    Идентификатор кодека/Информация : The same subtitle format used on BDs/HD-DVDs
    Заголовок : EUR
    Язык : Russian
    Default : Нет
    Forced : Нет

    Текст #3
    Идентификатор : 9
    Формат : UTF-8
    Идентификатор кодека : S_TEXT/UTF8
    Идентификатор кодека/Информация : UTF-8 Plain Text
    Заголовок : Full
    Язык : English
    Default : Нет
    Forced : Нет

    Текст #4
    Идентификатор : 10
    Формат : UTF-8
    Идентификатор кодека : S_TEXT/UTF8
    Идентификатор кодека/Информация : UTF-8 Plain Text
    Заголовок : SDH
    Язык : English
    Default : Нет
    Forced : Нет

    Меню
    00:00:00.000 : en:Chapter 00
    00:07:43.045 : en:Chapter 01
    00:14:32.538 : en:Chapter 02
    00:21:38.839 : en:Chapter 03
    00:25:39.329 : en:Chapter 04
    00:29:31.186 : en:Chapter 05
    00:34:16.846 : en:Chapter 06
    00:39:14.769 : en:Chapter 07
    00:45:29.435 : en:Chapter 08
    00:50:27.441 : en:Chapter 09
    00:54:42.070 : en:Chapter 10
    01:00:14.861 : en:Chapter 11
    01:05:38.476 : en:Chapter 12
    01:11:22.903 : en:Chapter 13
    01:16:15.571 : en:Chapter 14
    01:21:29.384 : en:Chapter 15
Свернуть
"Знаете ли Вы, что..."
  • Дженсен Эклс пробовался на роль Леона Кеннеди, но позже её получил Йохан Урб.
  • Ариана Энджинир получила роль Бекки без прослушивания.
Свернуть
Скриншоты

Изображение
Изображение
Изображение
Изображение
Изображение
Изображение
Свернуть
_________________
ИзображениеИзображение Изображение
Изображение
 tany1984 и di-ys1 нравится это.
Не в сети
Профиль  
 Добавлено: 2012-12-07 13:04 (спустя 5 часов)
Модератор
Аватара пользователя
Стаж: 8 лет 7 месяцев
Сообщений: 4965
Спасибок: 110254
Лайков: 18
:co_ol:
_________________
Изображение Изображение Изображение
Билайн / АДС добавляйте ретрекер, чтобы качать на скорости 100 Мбит/с
Cкрытый текст
Изображение
Свернуть
Не в сети
Профиль  
 Добавлено: 2012-12-07 16:32 (спустя 3 часа)
Модератор
Аватара пользователя
Стаж: 6 лет 10 месяцев
Возраст: 33
Сообщений: 5908
Спасибок: 61259
Лайков: 3540
:-ok-:
_________________
ИзображениеИзображение Изображение
Изображение
Не в сети
Профиль  
 Добавлено: 2012-12-08 06:01 (спустя 13 часов)
Стаж: 5 лет 3 месяца
Сообщений: 150
Лайков: 2
отстойное кино((
Не в сети
Профиль  
 Добавлено: 2012-12-08 17:00 (спустя 10 часов)
Аватара пользователя
Стаж: 4 года 10 месяцев
Возраст: 26
Сообщений: 3
:-ok-:
_________________
Изображение
Не в сети
Профиль  
Начать новую темуОтветить на тему  [ Сообщений: 5 ] 
Вы не можете начинать темы
Вы не можете отвечать на сообщения
Вы не можете редактировать свои сообщения
Вы не можете удалять свои сообщения