Правила форума

  • В этом разделе создание новых тем Запрещено.
  • Для создания новых тем пользуйтесь Корневым разделом DVD и HD фильмы.
Начать новую темуОтветить на тему  [ Сообщений: 5 ] 
Торрент файл
Размер: 10.41 GB • Зарегистрирован: 4 года • Статус: Проверено
Скачан: 358 раз • Желающих скачать: 0 • Поблагодарили: 99 раз
 Раздают: 1  |  0 KB/s  ]   Качают: 0  |  0 KB/s  ] 
Сообщения
 Добавлено: 2012-12-07 02:51
Аватара пользователя
Стаж: 9 лет 1 месяц
Сообщений: 8067
Спасибок: 122298
Лайков: 1194
Обитель зла. Возмездие / Resident Evil: Retribution

«Evil goes global»

Изображение


Год выпуска: 2012
Страна: Изображение Германия Изображение Канада
Жанр: ужасы, фантастика, боевик, триллер
Продолжительность: 01:35:38
Субтитры: Русские, английские
Перевод: Профессиональный (полное дублирование)


Режиссёр: Пол У. С. Андерсон
Сценарист: Пол У. С. Андерсон
Продюсер: Пол У. С. Андерсон, Джереми Болт, Дон Кармоди
Оператор: Глен Макферсон
Композитор: Томэндэнди

В ролях: Милла Йовович, Сиенна Гиллори, Мишель Родригез, Ариана Энджинир, Ли Бинбин, Борис Коджо, Йохан Урб, Робин Касянов, Кевин Дюран, Офилио Портильо, Одед Фер, Шоун Робертс, Тошио Оки, Такато Йамашита, Мика Накашима, Меган Чарпентье

Описание: Смертельный T-вирус, созданный в лабораториях корпорации «Амбрелла», продолжает захватывать Землю, превращая мировое население в легионы пожирающих плоть зомби. Последняя надежда человечества Элис внедряется в самое сердце самой тайной исследовательской базы корпорации и узнает еще больше о собственном таинственном прошлом. Не имея путей к отступлению, Элис продолжает искать виновных в глобальной катастрофе. Вызов, который она принимала в Токио, Нью-Йорке, Вашингтоне и даже в Москве, приводит ее в итоге к взрывающему сознание откровению, которое заставит ее переосмыслить все, что она полагала правдой. С помощью новых союзников и старых друзей, Элис будет сражаться за выживание и убегать из враждебного мира. Отсчет времени начат…

Изображение Изображение

Качество: BDRip (1080p)
Формат: Matroska
Видео: MPEG-4 AVC, 12.8 Мбит/с, 1920x800, 23,976 кадра/сек
Аудио №1: Русский (AC3, 6 ch, 640 Кбит/с)
Аудио №2: Украинский (AC3, 6 ch, 640 Кбит/с)
Аудио №3: Английский (DTS, 6 ch, 1510 Кбит/с)

MediaInfo
Общее
Уникальный идентификатор : 190545387520841468330661526919166489357 (0x8F59B4EE2A83AE5FA3F5A4310EAEF30D)
Полное имя : H:\Obitel.zla.Vozmezdie.2012.D.BDRip.1080p.nntt.org.mkv
Формат : Matroska
Версия формата : Version 2
Размер файла : 10,4 Гбайт
Продолжительность : 1 ч. 35 м.
Общий поток : 15,6 Мбит/сек
Название фильма : IRONCLUB
Дата кодирования : UTC 2012-12-06 20:50:21
Программа кодирования : mkvmerge v5.2.0 ('I can't explain') built on Dec 18 2011 18:12:03
Библиотека кодирования : libebml v1.2.3 + libmatroska v1.3.0

Видео
Идентификатор : 1
Формат : AVC
Формат/Информация : Advanced Video Codec
Профиль формата : High@L4.1
Параметр CABAC формата : Да
Параметр ReFrames формата : 5 кадров
Идентификатор кодека : V_MPEG4/ISO/AVC
Продолжительность : 1 ч. 35 м.
Битрейт : 12,8 Мбит/сек
Ширина : 1920 пикселей
Высота : 800 пикселей
Соотношение сторон : 2,40:1
Режим частоты кадров : Постоянный
Частота кадров : 23,976 кадра/сек
Цветовое пространство : YUV
Субдискретизация насыщенности : 4:2:0
Битовая глубина : 8 бит
Тип развёртки : Прогрессивная
Бит/(Пиксели*Кадры) : 0.348
Размер потока : 8,34 Гбайт (80%)
Заголовок : Resident.Evil.Retribution.2012.1080p.BluRay.x264.DTS-HDChina
Библиотека кодирования : x264 core 129 r2230+696+36 4446aa2 tMod+MixAQ [8-bit@4:2:0 X86_64]
Настройки программы : cabac=1 / ref=5 / deblock=1:-3:-3 / analyse=0x3:0x113 / me=umh / subme=11 / psy=1 / fade_compensate=0.00 / psy_rd=1.10:0.00 / mixed_ref=1 / me_range=48 / chroma_me=1 / trellis=2 / 8x8dct=1 / cqm=0 / deadzone=21,11 / fast_pskip=0 / chroma_qp_offset=-2 / threads=18 / lookahead_threads=3 / sliced_threads=0 / nr=0 / decimate=0 / interlaced=0 / bluray_compat=0 / constrained_intra=0 / fgo=0 / bframes=8 / b_pyramid=2 / b_adapt=2 / b_bias=0 / direct=3 / weightb=1 / open_gop=0 / weightp=2 / keyint=240 / keyint_min=24 / scenecut=40 / intra_refresh=0 / rc_lookahead=240 / rc=2pass / mbtree=1 / bitrate=12800 / ratetol=1.0 / qcomp=0.70 / qpmin=0 / qpmax=69 / qpstep=4 / cplxblur=20.0 / qblur=0.5 / ip_ratio=1.10 / aq=4 / aq-strength=0.90 / aq-sensitivity=10.00 / aq-ifactor=1.00 / aq-pfactor=1.00 / aq-bfactor=1.00 / aq2=0
Язык : English
Default : Да
Forced : Да

Аудио #1
Идентификатор : 2
Формат : AC-3
Формат/Информация : Audio Coding 3
Расширение режима : CM (complete main)
Параметр Endianness формата : Big
Идентификатор кодека : A_AC3
Продолжительность : 1 ч. 35 м.
Вид битрейта : Постоянный
Битрейт : 640 Кбит/сек
Каналы : 6 каналов
Расположение каналов : Front: L C R, Side: L R, LFE
Частота : 48,0 КГц
Битовая глубина : 16 бит
Метод сжатия : С потерями
Размер потока : 438 Мбайт (4%)
Заголовок : DD 5.1 @ 640 kbps - Dub, BD CEE
Язык : Russian
Default : Да
Forced : Да

Аудио #2
Идентификатор : 3
Формат : AC-3
Формат/Информация : Audio Coding 3
Расширение режима : CM (complete main)
Параметр Endianness формата : Big
Идентификатор кодека : A_AC3
Продолжительность : 1 ч. 35 м.
Вид битрейта : Постоянный
Битрейт : 640 Кбит/сек
Каналы : 6 каналов
Расположение каналов : Front: L C R, Side: L R, LFE
Частота : 48,0 КГц
Битовая глубина : 16 бит
Метод сжатия : С потерями
Размер потока : 438 Мбайт (4%)
Заголовок : DD 5.1 @ 640 kbps - Dub, BD CEE
Язык : Ukrainian
Default : Нет
Forced : Нет

Аудио #3
Идентификатор : 4
Формат : DTS
Формат/Информация : Digital Theater Systems
Режим : 16
Параметр Endianness формата : Big
Идентификатор кодека : A_DTS
Продолжительность : 1 ч. 35 м.
Вид битрейта : Постоянный
Битрейт : 1509 Кбит/сек
Каналы : 6 каналов
Расположение каналов : Front: L C R, Side: L R, LFE
Частота : 48,0 КГц
Битовая глубина : 24 бит
Метод сжатия : С потерями
Размер потока : 1,01 Гбайт (10%)
Заголовок : DTS 5.1 @ 1536 kbps
Язык : English
Default : Нет
Forced : Нет

Текст #1
Идентификатор : 5
Формат : UTF-8
Идентификатор кодека : S_TEXT/UTF8
Идентификатор кодека/Информация : UTF-8 Plain Text
Язык : Russian
Default : Нет
Forced : Нет

Текст #2
Идентификатор : 6
Формат : UTF-8
Идентификатор кодека : S_TEXT/UTF8
Идентификатор кодека/Информация : UTF-8 Plain Text
Язык : English
Default : Нет
Forced : Нет

Меню
00:00:00.000 : en:00:00:00.000
00:07:43.046 : en:00:07:43.046
00:14:32.538 : en:00:14:32.538
00:21:38.839 : en:00:21:38.839
00:25:39.329 : en:00:25:39.329
00:29:31.186 : en:00:29:31.186
00:34:16.846 : en:00:34:16.846
00:39:14.769 : en:00:39:14.769
00:45:29.435 : en:00:45:29.435
00:50:27.441 : en:00:50:27.441
00:54:42.070 : en:00:54:42.070
01:00:14.861 : en:01:00:14.861
01:05:38.476 : en:01:05:38.476
01:11:22.904 : en:01:11:22.904
01:16:15.571 : en:01:16:15.571
01:21:29.384 : en:01:21:29.384
Свернуть
Знаете ли вы, что...
Дженсен Эклс пробовался на роль Леона Кеннеди, но позже её получил Йохан Урб.

Ариана Энджинир получила роль Бекки без прослушивания.
Свернуть
Скриншоты
Изображение
Изображение
Изображение
Изображение
Изображение
Изображение
Изображение
Свернуть
В сети
Профиль  
 Добавлено: 2012-12-07 19:50 (спустя 16 часов)
Аватара пользователя
Стаж: 9 лет
Сообщений: 167
Спасибок: 38
давай в полном
Не в сети
Профиль  
 Добавлено: 2012-12-13 22:55 (спустя 6 дней)
Аватара пользователя
Стаж: 8 лет
Сообщений: 140
Спасибок: 51
спасибо
_________________
Изображение 6 мB/s Изображение 600 kB/s
Изображение
Не в сети
Профиль  
 Добавлено: 2012-12-16 18:42 (спустя 2 дня 19 часов)
Аватара пользователя
Стаж: 8 лет
Сообщений: 140
Спасибок: 51
если быть откровенно честным то давно я не смотрел такого отстойного фильма. короче говоря фильм не о чем.
_________________
Изображение 6 мB/s Изображение 600 kB/s
Изображение
Не в сети
Профиль  
 Добавлено: 2012-12-16 19:03 (спустя 21 минута)
Стаж: 7 лет
Сообщений: 21
Отстойный фильм :ne_ne:
Не в сети
Профиль  
Начать новую темуОтветить на тему  [ Сообщений: 5 ] 
Вы не можете начинать темы
Вы не можете отвечать на сообщения
Вы не можете редактировать свои сообщения
Вы не можете удалять свои сообщения