Правила форума

  • В этом разделе создание новых тем Запрещено.
  • Для создания новых тем пользуйтесь Корневым разделом DVD и HD фильмы.
Начать новую темуОтветить на тему  [ Сообщений: 8 ] 
Торрент файл
Размер: 4.31 GB • Зарегистрирован: 3 года 11 месяцев • Статус: Проверено
Скачан: 344 раза • Желающих скачать: 0 • Поблагодарили: 86 раз
 Раздают: 0  |  0 KB/s  ]   Качают: 0  |  0 KB/s  ] 
 Полного источника не было 1 день 18 часов 
Сообщения
 Добавлено: 2012-12-21 11:39
Модератор релиз-группы
Аватара пользователя
Стаж: 6 лет 5 месяцев
Возраст: 25
Сообщений: 622
Спасибок: 10258
Лайков: 7
Облачный атлас / Cloud Atlas

Изображение


Год выпуска: 2012
Страна: Германия, США, Гонконг, Сингапур
Жанр: Фантастика, драма, детектив
Продолжительность: 2:45:05
Перевод: Профессиональный (полное дублирование)
Субтитры: Нет

Режиссёр: Лана Вачовски, Том Тыквер, Энди Вачовски
В ролях: Том Хэнкс, Холли Берри, Джим Броудбент, Хьюго Уивинг, Джим Стёрджесс, Пэ Дуна, Бен Уишоу, Джеймс Д’Арси, Кит Дэвид
Описание: Шесть историй — пять реинкарнаций, происходящих в разное время, тесно переплетаются между собой… Многослойный сюжет начинается с истории американского нотариуса из 19 века, за ним следом идёт бедный музыкант-англичанин из 1930. Далее — издатель гламурных журналов, герой нашего времени. В ближайшем будущем центральным персонажем станет клон-бунтарь, и всё закончится на примитивном человеке на Гавайях, который пережил апокалипсис.
Изображение 8.2/10 (31269 votes)
Изображение 8.2/10 (32936 votes)
Раздача группы: Изображение
Качество: BDRip [720p]
Видео: 1280x544, 3247 Кбит/сек, 23,976 кадр/сек, AVC, x264, 2,35:1, 0.194 Бит/[Пиксели*Кадры], 2pass
Аудио: AC-3, 384 Кбит/сек, 6 канала(ов), 48,0 КГц
Размер: 4,31 ГБ
Субтитры: Нет
Media Info
Общее
Уникальный идентификатор : 249923935814497150250905393481006089678 (0xBC059963E36B53079E645921DBBA85CE)
Полное имя : A:РаздачиCloud.Atlas.2012.x264.BDRip.720p.DUB.mkv
Формат : Matroska
Версия формата : Version 4 / Version 2
Размер файла : 4,31 Гбайт
Продолжительность : 2 ч. 52 м.
Общий поток : 3584 Кбит/сек
Дата кодирования : UTC 2010-02-22 21:41:31
Программа кодирования : mkvmerge v5.9.0 ('On The Loose') built on Dec 9 2012 15:37:01
Библиотека кодирования : libebml v1.3.0 + libmatroska v1.4.0

Видео
Идентификатор : 1
Формат : AVC
Формат/Информация : Advanced Video Codec
Профиль формата : High@L3.1
Параметр CABAC формата : Да
Параметр ReFrames формата : 4 кадра
Идентификатор кодека : V_MPEG4/ISO/AVC
Продолжительность : 2 ч. 52 м.
Битрейт : 3247 Кбит/сек
Ширина : 1280 пикселей
Высота : 544 пикселя
Соотношение сторон : 2,35:1
Соотношение сторон в оригинале : 2,35:1
Частота кадров : 23,976 кадра/сек
Цветовое пространство : YUV
Субдискретизация насыщенности : 4:2:0
Битовая глубина : 8 бит
Тип развёртки : Прогрессивная
Бит/(Пиксели*Кадры) : 0.194
Размер потока : 3,76 Гбайт (87%)
Заголовок : Облачный атлас
Библиотека кодирования : x264 core 129 r2230 1cffe9f
Настройки программы : cabac=1 / ref=3 / deblock=1:0:0 / analyse=0x3:0x113 / me=hex / subme=7 / psy=1 / psy_rd=1.00:0.00 / mixed_ref=1 / me_range=16 / chroma_me=1 / trellis=1 / 8x8dct=1 / cqm=0 / deadzone=21,11 / fast_pskip=1 / chroma_qp_offset=-2 / threads=12 / lookahead_threads=2 / sliced_threads=0 / nr=0 / decimate=1 / interlaced=0 / bluray_compat=0 / constrained_intra=0 / bframes=3 / b_pyramid=2 / b_adapt=1 / b_bias=0 / direct=1 / weightb=1 / open_gop=0 / weightp=2 / keyint=240 / keyint_min=23 / scenecut=40 / intra_refresh=0 / rc_lookahead=40 / rc=2pass / mbtree=1 / bitrate=3247 / ratetol=1.0 / qcomp=0.60 / qpmin=10 / qpmax=51 / qpstep=4 / cplxblur=20.0 / qblur=0.5 / ip_ratio=1.40 / aq=1:1.00
Язык : English
Default : Да
Forced : Нет

Аудио
Идентификатор : 2
Формат : AC-3
Формат/Информация : Audio Coding 3
Расширение режима : CM (complete main)
Идентификатор кодека : A_AC3
Продолжительность : 2 ч. 52 м.
Вид битрейта : Постоянный
Битрейт : 384 Кбит/сек
Каналы : 6 каналов
Расположение каналов : Front: L C R, Side: L R, LFE
Частота : 48,0 КГц
Битовая глубина : 16 бит
Метод сжатия : С потерями
Размер потока : 473 Мбайт (11%)
Заголовок : 02:52:07
Язык : Russian
Default : Да
Forced : Нет
Свернуть
Скриншоты
Изображение
Изображение
Изображение
Изображение
Свернуть
_________________
Изображение


Последний раз редактировалось Slovetskii 2013-01-03 21:34, всего редактировалось 2 раз(а).
Не в сети
Профиль  
 Добавлено: 2012-12-21 16:11 (спустя 4 часа)
Аватара пользователя
Стаж: 7 лет 6 месяцев
Возраст: 21
Сообщений: 57
Спасибок: 201
Почему 2:45:05?
Режиссерская версия будет, ни кто не знает?
Не в сети
Профиль  
 Добавлено: 2013-01-03 18:40 (спустя 13 дней)
Аватара пользователя
Стаж: 5 лет 3 месяца
Сообщений: 5
подскажите дураку, хочу перекинуть на флэшку этот фильм, он пишет, что надо снять защиту, что делать?
Не в сети
Профиль  
 Добавлено: 2013-01-05 18:51 (спустя 2 дня)
Стаж: 8 лет 1 месяц
Сообщений: 3
Отличный фильм. Рекомендую. Работа гримеров поражает!
Не в сети
Профиль  
 Добавлено: 2013-01-15 15:57 (спустя 9 дней)
Аватара пользователя
Стаж: 8 лет 10 месяцев
Сообщений: 9619
Спасибок: 47253
Лайков: 5
karelskiy91
очевидно, отформатировать в ntfs флеш
_________________
слез
Не в сети
Профиль  
 Добавлено: 2013-01-17 20:46 (спустя 2 дня 4 часа)
Стаж: 7 лет 3 месяца
Сообщений: 9
У меня почему-то без звука воспроизводится фильм. Может кто-то знает из-за чего это? )
Не в сети
Профиль  
 Добавлено: 2013-01-17 20:52 (спустя 5 минут)
Аватара пользователя
Стаж: 8 лет 10 месяцев
Сообщений: 9619
Спасибок: 47253
Лайков: 5
Р22
ты глухой еп
_________________
слез
Не в сети
Профиль  
 Добавлено: 2014-08-11 18:21 (спустя 1 год 6 месяцев)
Стаж: 8 лет 10 месяцев
Сообщений: 623
Лайков: 35
мощный фильм, правда, чтобы толком понять, нужно не раз посмотреть
Не в сети
Профиль  
Начать новую темуОтветить на тему  [ Сообщений: 8 ] 
Вы не можете начинать темы
Вы не можете отвечать на сообщения
Вы не можете редактировать свои сообщения
Вы не можете удалять свои сообщения