Правила форума

  • В этом разделе создание новых тем Запрещено.
  • Для создания новых тем пользуйтесь Корневым разделом DVD и HD фильмы.
Начать новую темуОтветить на тему  [ Сообщений: 7 ] 
Торрент файл
Размер: 9.53 GB • Зарегистрирован: 3 года 11 месяцев • Статус: Проверено
Скачан: 226 раз • Желающих скачать: 0 • Поблагодарили: 66 раз
 Раздают: 1  |  0 KB/s  ]   Качают: 0  |  0 KB/s  ] 
Сообщения
 Добавлено: 2012-12-17 07:14
Аватара пользователя
Стаж: 9 лет 1 месяц
Сообщений: 7977
Спасибок: 122203
Лайков: 1191
Облачный атлас / Cloud Atlas

«Всё взаимосвязано»

Изображение


Год выпуска: 2012
Страна: Изображение Германия Изображение США Изображение Гонконг Изображение Сингапур
Жанр: фантастика, драма, детектив
Продолжительность: 02:52:07
Перевод: Профессиональный (полное дублирование)


Режиссёр: Лана Вачовски, Том Тыквер, Энди Вачовски
Сценарист: Лана Вачовски, Том Тыквер, Энди Вачовски
Продюсер: Штефан Арндт, Грант Хилл, Том Тыквер
Оператор: Франк Грибе, Джон Толл
Композитор: Райнхольд Хайль, Джонни Клаймек, Том Тыквер

В ролях: Том Хэнкс, Холли Берри, Джим Броудбент, Хьюго Уивинг, Джим Стёрджесс, Пэ Дуна, Бен Уишоу, Джеймс Д’Арси, Жу Жу, Кит Дэвид

Описание: Шесть историй — пять реинкарнаций, происходящих в разное время, тесно переплетаются между собой…

Изображение Изображение

Качество: BDRip (720p)
Формат: Matroska
Видео: MPEG-4 AVC, 1280x544 at 23.976 fps, ~6000 kbps avg
Аудио №1: Русский (AC3, 6 ch, 448 Кбит/c)
Аудио №2: Русский (DTS, 6 ch, 1510 Кбит/с)

MediaInfo
Общее
Уникальный идентификатор : 194518324091906642934543843869638175228 (0x9256DDD39A7BB298A8B530427D26A9FC)
Полное имя : H:\Cloud.Atlas.2012.720p.Bluray.Rus.nntt.org.mkv
Формат : Matroska
Версия формата : Version 2
Размер файла : 9,53 Гбайт
Продолжительность : 2 ч. 52 м.
Общий поток : 7928 Кбит/сек
Название фильма : HDCLUB present "Cloud Atlas (2012)"
Дата кодирования : UTC 2012-12-17 04:46:13
Программа кодирования : mkvmerge v5.8.0 ('No Sleep / Pillow') built on Sep 2 2012 15:37:04
Библиотека кодирования : libebml v1.2.3 + libmatroska v1.3.0

Видео
Идентификатор : 1
Формат : AVC
Формат/Информация : Advanced Video Codec
Профиль формата : High@L4.1
Параметр CABAC формата : Да
Параметр ReFrames формата : 12 кадров
Идентификатор кодека : V_MPEG4/ISO/AVC
Продолжительность : 2 ч. 52 м.
Битрейт : 6000 Кбит/сек
Ширина : 1280 пикселей
Высота : 544 пикселя
Соотношение сторон : 2,35:1
Режим частоты кадров : Постоянный
Частота кадров : 23,976 кадра/сек
Цветовое пространство : YUV
Субдискретизация насыщенности : 4:2:0
Битовая глубина : 8 бит
Тип развёртки : Прогрессивная
Бит/(Пиксели*Кадры) : 0.359
Размер потока : 6,99 Гбайт (73%)
Заголовок : Cloud.Atlas.2012.720p.Bluray.Rus.HDCLUB
Библиотека кодирования : x264 core 129 r2230 1cffe9f
Настройки программы : cabac=1 / ref=12 / deblock=1:-3:-3 / analyse=0x3:0x133 / me=umh / subme=11 / psy=1 / psy_rd=1.10:0.00 / mixed_ref=1 / me_range=32 / chroma_me=1 / trellis=2 / 8x8dct=1 / cqm=0 / deadzone=21,11 / fast_pskip=0 / chroma_qp_offset=-2 / threads=12 / lookahead_threads=2 / sliced_threads=0 / nr=0 / decimate=1 / interlaced=0 / bluray_compat=0 / constrained_intra=0 / bframes=7 / b_pyramid=2 / b_adapt=2 / b_bias=0 / direct=3 / weightb=1 / open_gop=0 / weightp=2 / keyint=250 / keyint_min=23 / scenecut=40 / intra_refresh=0 / rc_lookahead=60 / rc=2pass / mbtree=0 / bitrate=6000 / ratetol=1.0 / qcomp=0.60 / qpmin=0 / qpmax=69 / qpstep=4 / cplxblur=20.0 / qblur=0.5 / vbv_maxrate=50000 / vbv_bufsize=62500 / nal_hrd=none / ip_ratio=1.40 / pb_ratio=1.30 / aq=1:0.80
Язык : English
Default : Да
Forced : Да

Аудио #1
Идентификатор : 2
Формат : AC-3
Формат/Информация : Audio Coding 3
Расширение режима : CM (complete main)
Параметр Endianness формата : Big
Идентификатор кодека : A_AC3
Продолжительность : 2 ч. 52 м.
Вид битрейта : Постоянный
Битрейт : 448 Кбит/сек
Каналы : 6 каналов
Расположение каналов : Front: L C R, Side: L R, LFE
Частота : 48,0 КГц
Битовая глубина : 16 бит
Метод сжатия : С потерями
Размер потока : 552 Мбайт (6%)
Язык : Russian
Default : Да
Forced : Да

Аудио #2
Идентификатор : 3
Формат : DTS
Формат/Информация : Digital Theater Systems
Режим : 16
Параметр Endianness формата : Big
Режим смешивания : Header stripping
Идентификатор кодека : A_DTS
Продолжительность : 2 ч. 52 м.
Вид битрейта : Постоянный
Битрейт : 1509 Кбит/сек
Каналы : 6 каналов
Расположение каналов : Front: L C R, Side: L R, LFE
Частота : 48,0 КГц
Битовая глубина : 16 бит
Метод сжатия : С потерями
Размер потока : 1,81 Гбайт (19%)
Заголовок : DTS 5.1 @ 1509 kbps - Dubbing [Blu-ray RUS]
Язык : Russian
Default : Нет
Forced : Нет

Меню
00:00:00.000 : en:1
00:05:23.698 : en:2
00:14:48.554 : en:3
00:24:37.559 : en:4
00:31:45.361 : en:5
00:38:48.284 : en:6
00:46:39.087 : en:7
00:54:30.684 : en:8
00:59:25.937 : en:9
01:06:08.381 : en:10
01:12:34.266 : en:11
01:20:25.153 : en:12
01:26:51.456 : en:13
01:33:15.006 : en:14
01:39:44.645 : en:15
01:45:39.374 : en:16
01:53:32.388 : en:17
02:00:03.070 : en:18
02:09:22.921 : en:19
02:16:09.870 : en:20
02:22:03.431 : en:21
02:29:16.656 : en:22
02:37:02.246 : en:23
02:42:50.218 : en:24
Свернуть
Знаете ли вы, что...
На съемках Холли Берри сломала ногу.

Тыквер и Вачовски снимали фильм параллельно, используя отдельные съемочные группы. Вачовски работали, в основном, над съемками эпизодов из будущего и историей 90-х годов, а Том Тыквер занимался режиссурой сюжетов, разворачивающихся в нашем времени, 30-х и 70-х годах.

В 2005 году, во время съемок «V» значит Ведетта» (2006) в Лондоне, актриса Натали Портман дала копию оригинального романа Лане Вачовски, и он ее сильно заинтересовал. Год спустя Вачовски написали первый черновой вариант сценария. Друг Ланы Вачовски и Энди Вачовски — Том Тыквер, был приглашен для совместной работы над проектом, и следующие два года они дорабатывали сценарий, помня замечания автора книги, Дэвида Митчелла, и одновременно искали международных инвесторов. Все эти годы Портман была обещана роль «Sonmi-451», но ей пришлось отказаться в последний момент в связи с беременностью.

Джеймс МакЭвой и Иэн МакКеллен рассматривались на роль в фильме.

Все актеры имеют несколько ролей в фильме, охватывающих разное время, расы и даже пол. Это было достигнуто благодаря пластическому гриму, богатой костюмерной и жесткими временными рамками на переход между ролями для актеров. К примеру, Холли Берри рассказала об опыте съемок в образе еврейской женщины 1930-х годов под руководством Тома Тыквера в один день, потом быстрый переход к женщине из древнего племени под руководством Ланы Вачовски и Энди Вачовски в следующий день, а затем еще переход к образу эколога 1970-х, и все эти смены образа шли одна за другой без перерывов.

В какой-то момент на съемочной площадке Том Хэнкс начал называть Лану Вачовски и Энди Вачовски — «Мама и Папа», потому что они очень хорошо сработались и были отличными лидерами, как для актеров, так и для съемочной команды.

Один из немногих фильмов в истории, в котором три режиссера работали как команда, и каждый со своей стороны имел абсолютно равное влияние на проект.

Номер апартаментов Луизы Рэй — 451, это намек на Сонми-451. Оба персонажа берут на себя огромный риск в борьбе с несправедливостью.

Первый фильм Вачовски после «Связь» (1996), по которому не будут делать компьютерную игру.

Во время съемок режиссеры просили актеров воспринимать свои роли как «генетические деформации», а не как ряд отдельных частей, изменения в одной из которых влияют на другие.

Несмотря на близкие отношения Роберта и Руфуса в фильме, они на самом деле ни разу не говорят друг с другом.

Персонаж из 1973 года говорит, что его рейс был отменен из-за забастовки диспетчеров. Единственная забастовка авиадиспетчеров за всю историю США была в 1981 году.

В 1973 году один и тот же желтый автомобиль с черной полосой (предположительно Chevrolet Vega) появляется в двух различных кадрах.

В 1849 году в Сан-Франциско прислуга состоит из рабов. Калифорния никогда не была рабовладельческим штатом.
Свернуть
Скриншоты
Изображение
Изображение
Изображение
Изображение
Изображение
Свернуть
Не в сети
Профиль  
 Добавлено: 2012-12-17 11:14 (спустя 3 часа)
Стаж: 8 лет 10 месяцев
Сообщений: 5
Спасибо! Давно ждал в высоком качестве! :bra_vo:

Добавлено спустя 7 минут:
Отдельное спасибо за AC3!
Не в сети
Профиль  
 Добавлено: 2012-12-17 18:47 (спустя 7 часов)
Аватара пользователя
Стаж: 8 лет 9 месяцев
Сообщений: 1170
Спасибок: 1294
Лайков: 7
фильм крут?
Не в сети
Профиль  
 Добавлено: 2012-12-17 20:39 (спустя 1 час 51 минута)
Аватара пользователя
Стаж: 8 лет 1 месяц
Сообщений: 358
Спасибок: 744
Лайков: 13
Спасибо, качаем :ya_hoo_oo:
Не в сети
Профиль  
 Добавлено: 2012-12-18 00:00 (спустя 3 часа)
Аватара пользователя
Стаж: 8 лет 2 месяца
Сообщений: 59
Спасибок: 197
Шикарный фильм. :bra_vo:
Не в сети
Профиль  
 Добавлено: 2012-12-19 06:12 (спустя 1 день 6 часов)
Аватара пользователя
Стаж: 3 года 11 месяцев
Возраст: 35
Сообщений: 22
Спасибок: 255
спасибки, качаем :)
Не в сети
Профиль  
 Добавлено: 2013-01-02 20:49 (спустя 14 дней)
Аватара пользователя
Стаж: 4 года 1 месяц
Возраст: 21
Сообщений: 1360
Лайков: 7
фильм вообще оконь. Книгу не подвел :co_ol:
_________________
Если ты это читаешь, значит ты неудачник.
Не в сети
Профиль  
Начать новую темуОтветить на тему  [ Сообщений: 7 ] 
Вы не можете начинать темы
Вы не можете отвечать на сообщения
Вы не можете редактировать свои сообщения
Вы не можете удалять свои сообщения