Правила форума

  • В этом разделе создание новых тем Запрещено.
  • Для создания новых тем пользуйтесь Корневым разделом DVD и HD фильмы.
Начать новую темуОтветить на тему  [ Сообщений: 7 ] 
Торрент файл
Размер: 4.37 GB • Зарегистрирован: 5 лет 6 месяцев • Статус: Проверено
Скачан: 372 раза • Желающих скачать: 0 • Поблагодарили: 47 раз
 Раздают: 0  |  0 KB/s  ]   Качают: 0  |  0 KB/s  ] 
 Полного источника не было 9 месяцев 
Сообщения
 Добавлено: 2011-05-19 16:13
Top-releaser
Аватара пользователя
Стаж: 8 лет 9 месяцев
Сообщений: 479
Спасибок: 20189
Лайков: 16
Области тьмы

Limitless

Изображение


Год выпуска: 2011
Страна: Изображение США
Слоган: «Что если одна таблетка NZT сделает тебя богатым и могущественным? Узнай о побочных эффектах.»
Жанр: Фантастика, триллер, детектив
Продолжительность: 01:44:44
Перевод: Профессиональный (дублированный)

Режиссёр: Нил Бёргер / Neil Berger

В ролях: Брэдли Купер, Роберт Де Ниро, Эбби Корниш, Эндрю Ховард, Анна Фрил, Джонни Витуорт, Томас Арана, Роберт Джон Бёрк, Даррен Голдштейн, Нед Эйзенберг

Описание: Нью-йоркский писатель Эдди, желая преодолеть чёрную полосу в жизни, принимает засекреченный препарат под названием NZT. Таблетка выводит мозг парня на работу в нереальной мощности. Этот творческий наркотик меняет всю жизнь Эдди, за короткий срок он зарабатывает кучу денег, но скоро начинает страдать от зловещих побочных эффектов препарата. А когда пытается найти других NZT-гениев, чтобы понять, как можно справиться с этим пристрастием, он узнает страшную правду…

Качество: BDRip 720p R5
Формат: MKV

Видео: 4461 kb/s, 1280x536
Аудио: DTS, 1510 kb/s (6 ch)
Изображение

Изображение

BDInfo
Полное имя : C:\Users\Домашний\Desktop\Oblasti.tmy.2011.BDRip.720p.[nntt].mkv
Формат : Matroska
Размер файла : 4,37 Гбайт
Продолжительность : 1 ч. 44 м.
Общий поток : 5970 Кбит/сек
Дата кодирования : UTC 2011-05-18 23:55:05
Программа кодирования : mkvmerge v4.5.0 ('Speed of Light') built on Feb 15 2011 12:50:20
Библиотека кодирования : libebml v1.2.0 + libmatroska v1.1.0

Видео
Идентификатор : 1
Формат : AVC
Формат/Информация : Advanced Video Codec
Профиль формата : High@L4.1
Параметр CABAC формата : Да
Параметр ReFrames формата : 8 кадры
Идентификатор кодека : V_MPEG4/ISO/AVC
Продолжительность : 1 ч. 44 м.
Битрейт : 4461 Кбит/сек
Ширина : 1280 пикс.
Высота : 536 пикс.
Соотношение сторон : 2,35:1
Частота кадров : 23,976 кадр/сек
Цветовое пространство : YUV
Подвыборка цветности : 4:2:0
Битовая глубина : 8 бит
Тип развёртки : Прогрессивная
Бит/(Пиксели*Кадры) : 0.271
Размер потока : 3,18 Гбайт (73%)
Библиотека кодирования : x264 core 114 r1913 5fd3dce
Настройки программы : cabac=1 / ref=8 / deblock=1:-1:-1 / analyse=0x3:0x133 / me=umh / subme=7 / psy=1 / psy_rd=1.00:0.10 / mixed_ref=1 / me_range=16 / chroma_me=1 / trellis=2 / 8x8dct=1 / cqm=0 / deadzone=21,11 / fast_pskip=0 / chroma_qp_offset=-3 / threads=12 / sliced_threads=0 / nr=0 / decimate=1 / interlaced=0 / constrained_intra=0 / bframes=3 / b_pyramid=2 / b_adapt=2 / b_bias=0 / direct=3 / weightb=1 / open_gop=0 / weightp=2 / keyint=250 / keyint_min=23 / scenecut=40 / intra_refresh=0 / rc_lookahead=50 / rc=2pass / mbtree=1 / bitrate=4461 / ratetol=1.0 / qcomp=0.60 / qpmin=0 / qpmax=69 / qpstep=4 / cplxblur=20.0 / qblur=0.5 / ip_ratio=1.40 / aq=1:1.00

Аудио
Идентификатор : 2
Формат : DTS
Формат/Информация : Digital Theater Systems
Идентификатор кодека : A_DTS
Продолжительность : 1 ч. 44 м.
Вид битрейта : Постоянный
Битрейт : 1510 Кбит/сек
Канал(ы) : 6 канала(ов)
Расположение каналов : Front: L C R, Side: L R, LFE
Частота : 48,0 КГц
Битовая глубина : 24 бит
Метод сжатия : С потерями
Размер потока : 1,10 Гбайт (25%)
Свернуть
"Знаете ли Вы, что..."
В основе фильма лежит одноимённый роман Алана Глинна.
Свернуть
Скриншоты
Изображение
Изображение
Изображение
Изображение
Изображение
Свернуть
_________________
Изображение
Изображение
Не в сети
Профиль  
 Добавлено: 2011-05-20 19:53 (спустя 1 день 3 часа)
Стаж: 8 лет 3 месяца
Сообщений: 18
Спасибок: 4
!
Не в сети
Профиль  
 Добавлено: 2011-05-21 14:59 (спустя 19 часов)
Аватара пользователя
Стаж: 6 лет 11 месяцев
Сообщений: 167
Фильм охринительный !!!! всем смотреть .. автору респект !!!
Не в сети
Профиль  
 Добавлено: 2011-05-31 17:17 (спустя 10 дней)
Стаж: 7 лет 3 месяца
Сообщений: 18
фильм обалденный :)
Не в сети
Профиль  
 Добавлено: 2011-06-20 20:56 (спустя 20 дней)
Аватара пользователя
Стаж: 8 лет 10 месяцев
Возраст: 24
Сообщений: 38
Спасибок: 110
оч классный фильм!!!!
Не в сети
Профиль  
 Добавлено: 2011-06-30 00:12 (спустя 9 дней)
Стаж: 7 лет 1 месяц
Сообщений: 22
Спасибок: 12
На один раз, особо не впечатлил.
Не в сети
Профиль  
 Добавлено: 2011-07-03 13:59 (спустя 3 дня)
Аватара пользователя
Стаж: 7 лет 5 месяцев
Сообщений: 77
Спасибок: 2
скорости плиззз!!!1
Не в сети
Профиль  
Начать новую темуОтветить на тему  [ Сообщений: 7 ] 
Вы не можете начинать темы
Вы не можете отвечать на сообщения
Вы не можете редактировать свои сообщения
Вы не можете удалять свои сообщения