Правила форума

  • В этом разделе создание новых тем Запрещено.
  • Для создания новых тем пользуйтесь Корневым разделом DVD и HD фильмы.
Начать новую темуОтветить на тему  [ Сообщений: 4 ] 
Торрент файл
Размер: 12.69 GB • Зарегистрирован: 5 лет 4 месяца • Статус: Проверено
Скачан: 406 раз • Желающих скачать: 0 • Поблагодарили: 56 раз
 Раздают: 0  |  0 KB/s  ]   Качают: 0  |  0 KB/s  ] 
 Полного источника не было 10 часов 
Сообщения
 Добавлено: 2011-07-20 17:54
Модератор
Аватара пользователя
Стаж: 8 лет 1 месяц
Сообщений: 1991
Спасибок: 129864
Лайков: 20
Области тьмы / Limitless


«Что если одна таблетка NZT сделает тебя богатым и могущественным? Узнай о побочных эффектах.»



Изображение
Год выпуска: 2011
Страна: Изображение США
Жанр: фантастика, триллер, детектив
Продолжительность:
01:45:33

Перевод: Оригинальный, Профессиональный (полное дублирование) [лицензия]

Режиссер: Нил Бёргер
Сценарий: Лесли Диксон, Алан Глинн
Продюсер: Лесли Диксон, Райан Кэвэна, Скотт Крупф, Брэдли Купер, Пэт Пич
Оператор: Джо Уиллемс
Композитор: Пол Леонард-Морган

В ролях:
Брэдли Купер (Eddie Morra), Роберт Де Ниро (Carl Van Loon), Эбби Корниш (Lindy), Эндрю Ховард (Gennady), Анна Фрил (Melissa), Джонни Витуорт (Vernon), Томас Арана (Man in Tan Coat), Роберт Джон Бёрк (Pierce), Даррен Голдштейн (Kevin Doyle), Нед Эйзенберг (Morris Brandt), Т.В. Карпио (Valerie), Ричард Бекинс (Hank Atwood)
Дублёры: Денис Беспалый (Eddie Morra) (Eddie Morra), Никита Прозоровский (Carl Van Loon) (Carl Van Loon), Ирина Киреева (Lindy) (Lindy), Василий Дахненко (Gennady) (Gennady), Юлия Ромашина (Melissa) (Melissa), Валерий Сторожик (Vernon) (Vernon), Петр Тобилевич (Pierce; Hank Atwood) (Pierce; Hank Atwood), Константин Карасик (Kevin Doyle) (Kevin Doyle), Андрей Бархударов (Morris Brandt) (Morris Brandt), Вероника Саркисова (Valerie) (Valerie), Нина Тобилевич (Mrs. Atwood) (Mrs. Atwood)

Описание: Нью-йоркский писатель Эдди, желая преодолеть чёрную полосу в жизни, принимает засекреченный препарат под названием NZT. Таблетка выводит мозг парня на работу в нереальной мощности. Этот творческий наркотик меняет всю жизнь Эдди, за короткий срок он зарабатывает кучу денег, но скоро начинает страдать от зловещих побочных эффектов препарата. А когда пытается найти других NZT-гениев, чтобы понять, как можно справиться с этим пристрастием, он узнает страшную правду...


Изображение: 7.843 (28 783)
Изображение: 7.30 (44 707)

MPAA: Изображение - Детям до 13 лет просмотр не желателен

Доп. Информация

Бюджет: $26 000 000
Сборы в США: $79 249 455
Сборы в России: $6 199 604
Сборы в мире: $155 449 455
Мировая премьера: 8 марта 2011
Изображение Релиз на DVD: 19 мая 2011, «CP-Digital»
Изображение Релиз на Blu-ray: 19 мая 2011, «CP-Digital»

Свернуть



Качество: BDRip 1080p R5

Формат: MKV
Видео: H264 / 14000 kbps / 1920x800 / 23,976 fps / 16:9 / High Profile 4.1
Аудио 1: Русский дубляж / DTS / 5.1 / 48 kHz / 1536 kbps
Аудио 2: Английский / DTS / 5.1 / 48 kHz / 1536 kbps
Аудио 3: Английский / Dolby Digital / 2.0 / 48 kHz / 192 kbps (коменты)
Cубтитры 1: Русские (F-JAY)
Cубтитры 2: Английские SDH
Чаптеры: есть



Знаете ли Вы, что...
  • В основе фильма лежит одноимённый роман Алана Глинна.
Свернуть
BDInfo

Complete name : Limitless.2011.Blu-ray.US.Unrated.1080p.x264-NiP.Rus.Eng.mkv
Format : Matroska
File size : 12.7 GiB
Duration : 1h 45mn
Overall bit rate : 17.2 Mbps
Movie name : HANSMER
Encoded date : UTC 2011-07-17 20:46:42
Writing application : mkvmerge v4.9.1 ('Ich will') сборка от Jul 11 2011 23:53:15
Writing library : libebml v1.2.1 + libmatroska v1.1.1


Video
ID : 1
Format : AVC
Format/Info : Advanced Video Codec
Format profile : High@L4.1
Format settings, CABAC : Yes
Format settings, ReFrames : 5 frames
Codec ID : V_MPEG4/ISO/AVC
Duration : 1h 45mn
Bit rate : 14.0 Mbps
Width : 1 920 pixels
Height : 800 pixels
Display aspect ratio : 2.40:1
Frame rate : 23.976 fps
Color space : YUV
Chroma subsampling : 4:2:0
Bit depth : 8 bits
Scan type : Progressive
Bits/(Pixel*Frame) : 0.380
Stream size : 10.1 GiB (79%)
Writing library : x264 core 115 r2008 4c552d8
Encoding settings : cabac=1 / ref=5 / deblock=1:-3:-2 / analyse=0x3:0x113 / me=umh / subme=10 / psy=1 / psy_rd=1.05:0.05 / mixed_ref=1 / me_range=32 / chroma_me=1 / trellis=2 / 8x8dct=1 / cqm=0 / deadzone=21,11 / fast_pskip=0 / chroma_qp_offset=-3 / threads=12 / sliced_threads=0 / nr=0 / decimate=0 / interlaced=0 / bluray_compat=0 / constrained_intra=0 / bframes=12 / b_pyramid=2 / b_adapt=2 / b_bias=0 / direct=3 / weightb=1 / open_gop=0 / weightp=2 / keyint=250 / keyint_min=23 / scenecut=40 / intra_refresh=0 / rc_lookahead=60 / rc=2pass / mbtree=0 / bitrate=14000 / ratetol=1.0 / qcomp=0.80 / qpmin=0 / qpmax=51 / qpstep=4 / cplxblur=20.0 / qblur=0.5 / vbv_maxrate=50000 / vbv_bufsize=62500 / nal_hrd=none / ip_ratio=1.30 / pb_ratio=1.10 / aq=2:0.90
Language : English
Matrix coefficients : BT.709-5, BT.1361, IEC 61966-2-4 709, SMPTE RP177


Audio #1
ID : 2
Format : DTS
Format/Info : Digital Theater Systems
Codec ID : A_DTS
Duration : 1h 45mn
Bit rate mode : Constant
Bit rate : 1 510 Kbps
Channel(s) : 6 channels
Channel positions : Front: L C R, Side: L R, LFE
Sampling rate : 48.0 KHz
Bit depth : 24 bits
Compression mode : Lossy
Stream size : 1.11 GiB (9%)
Title : Dub
Language : Russian


Audio #2
ID : 3
Format : DTS
Format/Info : Digital Theater Systems
Codec ID : A_DTS
Duration : 1h 45mn
Bit rate mode : Constant
Bit rate : 1 510 Kbps
Channel(s) : 6 channels
Channel positions : Front: L C R, Side: L R, LFE
Sampling rate : 48.0 KHz
Bit depth : 24 bits
Compression mode : Lossy
Stream size : 1.11 GiB (9%)
Language : English


Audio #3
ID : 4
Format : AC-3
Format/Info : Audio Coding 3
Mode extension : CM (complete main)
Codec ID : A_AC3
Duration : 1h 45mn
Bit rate mode : Constant
Bit rate : 192 Kbps
Channel(s) : 2 channels
Channel positions : Front: L R
Sampling rate : 48.0 KHz
Bit depth : 16 bits
Compression mode : Lossy
Stream size : 145 MiB (1%)
Title : Commentary
Language : English


Text #1
ID : 5
Format : UTF-8
Codec ID : S_TEXT/UTF8
Codec ID/Info : UTF-8 Plain Text
Language : Russian


Text #2
ID : 6
Format : UTF-8
Codec ID : S_TEXT/UTF8
Codec ID/Info : UTF-8 Plain Text
Language : English


Menu
00:00:00.000 : en:00:00:00.000
00:03:49.104 : en:00:03:49.104
00:06:55.915 : en:00:06:55.915
00:11:05.707 : en:00:11:05.707
00:16:28.362 : en:00:16:28.362
00:20:40.072 : en:00:20:40.072
00:24:20.834 : en:00:24:20.834
00:28:55.859 : en:00:28:55.859
00:34:09.172 : en:00:34:09.172
00:38:20.173 : en:00:38:20.173
00:42:26.419 : en:00:42:26.419
00:47:03.821 : en:00:47:03.821
00:51:24.248 : en:00:51:24.248
00:54:45.532 : en:00:54:45.532
00:59:36.948 : en:00:59:36.948
01:05:59.664 : en:01:05:59.664
01:09:07.935 : en:01:09:07.935
01:12:11.952 : en:01:12:11.952
01:15:12.299 : en:01:15:12.299
01:18:52.561 : en:01:18:52.561
01:22:20.352 : en:01:22:20.352
01:27:53.643 : en:01:27:53.643
01:32:29.961 : en:01:32:29.961
01:39:01.644 : en:01:39:01.644
Свернуть
Скриншоты

Изображение
Изображение
Изображение
Изображение
Изображение
Изображение
Свернуть

_________________
Себе ты можешь не качать, но раздавать другим обязан!
Не в сети
Профиль  
 Добавлено: 2011-09-01 11:14 (спустя 1 месяц 11 дней)
Аватара пользователя
Стаж: 8 лет
Возраст: 23
Сообщений: 80
Спасибок: 213
Спасибо... :a_g_a:
_________________
Ошибся я однажды номером. Ору в трубку: - Ты, бл*ть, где?! Орут в ответ: - А ты, бл*ть, кто?! :D
Не в сети
Профиль  
 Добавлено: 2011-09-28 20:36 (спустя 27 дней)
Аватара пользователя
Стаж: 6 лет 10 месяцев
Возраст: 38
Сообщений: 152
:-ok-:
Не в сети
Профиль  
 Добавлено: 2012-07-13 15:58 (спустя 9 месяцев)
Top-seeder
Аватара пользователя
Стаж: 6 лет 1 месяц
Возраст: 28
Сообщений: 108
Спасибок: 14
Отличный фильм, обязателен к просмотру. Спасибо!
_________________
Fortes fortuna adjuvat...
Моя железка
Core i5 2500K@4500Мhz(1.375v)
Zalman 9900 NT
CORSAIR XMS3 4x2Gb@1600Mhz
ASROCK P67 PRO3
PALIT GeForce GTX 680 JETSTREAM
SSD OCZ Vertex 3 60Gb
HDD Samsung 1Tb
Блок питания OCZ StealthXStream 2 700Вт
Монитор LG Flatron E2441T-BN 24"
Свернуть
Не в сети
Профиль  
Начать новую темуОтветить на тему  [ Сообщений: 4 ] 
Вы не можете начинать темы
Вы не можете отвечать на сообщения
Вы не можете редактировать свои сообщения
Вы не можете удалять свои сообщения