Правила форума

  • В этом разделе создание новых тем Запрещено.
  • Для создания новых тем пользуйтесь Корневым разделом DVD и HD фильмы.
Начать новую темуОтветить на тему  [ Сообщений: 4 ] 
Торрент файл
Размер: 9 GB • Зарегистрирован: 3 года 4 месяца • Статус: Проверено
Скачан: 226 раз • Желающих скачать: 0 • Поблагодарили: 76 раз
 Раздают: 1  |  0 KB/s  ]   Качают: 0  |  0 KB/s  ] 
Сообщения
 Добавлено: 2013-08-05 19:50
Модератор
Аватара пользователя
Стаж: 8 лет 1 месяц
Возраст: 20
Сообщений: 32130
Спасибок: 98565
Лайков: 80
Обливион \ Oblivion

Изображение

Страна: США, Chernin Entertainment, Ironhead Studios, Radical Pictures, Radical Studios, Truenorth Productions, Universal Pictures
Режиссер: Джозеф Косински
Жанр: Фантастика, боевик, триллер, приключения, антиутопия
Год выхода: 2013
Перевод: профессиональный (полное дублирование) [Лицензия, BD CEE]

Русские субтитры: Нет

В ролях:

Том Круз, Ольга Куриленко, Морган Фримен, Андреа
Райзборо, Николай Костер-Валдау, Мелисса Лео, Зои
Белл, Эбигейл Лоу, Изабель Лоу, Дэвид Мэдисон

Описание:

Можно ли скучать по месту, в котором никогда не был,
мечтать о девушке, которую никогда не видел? Добро
пожаловать в будущее! Мы больше не можем называть
Землю своим домом. Мы выиграли войну, но не смогли
сохранить планету…

Тип релиза: BDRip 1080p (исходник: Oblivion 2013 1080p Blu-ray AVC TrueHD 5.1-HDWinG)
Контейнер: MKV
Видео кодек: x264
Аудио кодек: AC3
Видео: AVC / High@L4.1 / 2 pass / 23,976 fps / 1920x804p (2,40:1) / 8,8 Mbps / 0.238
Аудио 1: AC3 / 5.1 ch / 448 kbps / Русский дубляж, BD CEE
Аудио 2: AC3 / 5.1 ch / 640 kbps / Английский original, BD US
Субтитры: [softsub SRT]
Русские Forced, BD CEE (включены по умолчанию)
Русские Full, BD CEE
Русские Full, Voronine
Английские Full, mod. BD US
Английские SDH, BD US
Английские SDH-COLOR, mod. BD US
Дополнительно: Сохранены оригинальные чаптеры (главы) как на Blu-ray
Изображение

Скриншоты:
Cкрытый текст
Изображение

Изображение

Изображение
Свернуть
MI
Общее
Уникальный идентификатор : 220181541685066369979422454912610160453 (0xA5A56C249613327D86EFD7D7C9CB4F45)
Полное имя : F:Скачка торрентOblivion.2013.BDRip1080p(Killbrain)Oblivion.2013.BDRip1080p(Killbrain).mkv
Формат : Matroska
Версия формата : Version 4 / Version 2
Размер файла : 8,61 Гбайт
Продолжительность : 2 ч. 4 м.
Общий поток : 9886 Кбит/сек
Название фильма : Oblivion (2013) by Killbrain
Дата кодирования : UTC 2013-08-04 20:15:24
Программа кодирования : mkvmerge v6.3.0 ('You can't stop me!') built on Jun 28 2013 20:09:41
Библиотека кодирования : libebml v1.3.0 + libmatroska v1.4.0

Видео
Идентификатор : 1
Формат : AVC
Формат/Информация : Advanced Video Codec
Профиль формата : High@L4.1
Параметр CABAC формата : Да
Параметр ReFrames формата : 4 кадра
Идентификатор кодека : V_MPEG4/ISO/AVC
Продолжительность : 2 ч. 4 м.
Битрейт : 8800 Кбит/сек
Ширина : 1920 пикселей
Высота : 804 пикселя
Соотношение сторон : 2,40:1
Режим частоты кадров : Постоянный
Частота кадров : 23,976 кадра/сек
Цветовое пространство : YUV
Субдискретизация насыщенности : 4:2:0
Битовая глубина : 8 бит
Тип развёртки : Прогрессивная
Бит/(Пиксели*Кадры) : 0.238
Размер потока : 7,49 Гбайт (87%)
Заголовок : Oblivion (2013)
Библиотека кодирования : x264 core 135 r2345 f0c1c53
Настройки программы : cabac=1 / ref=4 / deblock=1:-3:-3 / analyse=0x3:0x113 / me=umh / subme=10 / psy=1 / psy_rd=1.00:0.15 / mixed_ref=1 / me_range=32 / chroma_me=1 / trellis=2 / 8x8dct=1 / cqm=0 / deadzone=21,11 / fast_pskip=0 / chroma_qp_offset=-3 / threads=3 / lookahead_threads=1 / sliced_threads=0 / nr=0 / decimate=0 / interlaced=0 / bluray_compat=0 / constrained_intra=0 / bframes=8 / b_pyramid=2 / b_adapt=2 / b_bias=0 / direct=3 / weightb=1 / open_gop=0 / weightp=2 / keyint=240 / keyint_min=24 / scenecut=40 / intra_refresh=0 / rc_lookahead=60 / rc=2pass / mbtree=0 / bitrate=8800 / ratetol=1.0 / qcomp=0.65 / qpmin=0 / qpmax=69 / qpstep=4 / cplxblur=20.0 / qblur=0.5 / vbv_maxrate=40000 / vbv_bufsize=30000 / nal_hrd=none / ip_ratio=1.40 / pb_ratio=1.30 / aq=2:0.80
Язык : English
Default : Да
Forced : Нет

Аудио #1
Идентификатор : 2
Формат : AC-3
Формат/Информация : Audio Coding 3
Расширение режима : CM (complete main)
Параметр Endianness формата : Big
Идентификатор кодека : A_AC3
Продолжительность : 2 ч. 4 м.
Вид битрейта : Постоянный
Битрейт : 448 Кбит/сек
Каналы : 6 каналов
Расположение каналов : Front: L C R, Side: L R, LFE
Частота : 48,0 КГц
Битовая глубина : 16 бит
Метод сжатия : С потерями
Размер потока : 400 Мбайт (5%)
Заголовок : AC3 / 5.1 ch / 448 kbps / Русский дубляж, BD CEE
Язык : Russian
Default : Да
Forced : Нет

Аудио #2
Идентификатор : 3
Формат : AC-3
Формат/Информация : Audio Coding 3
Расширение режима : CM (complete main)
Параметр Endianness формата : Big
Идентификатор кодека : A_AC3
Продолжительность : 2 ч. 4 м.
Вид битрейта : Постоянный
Битрейт : 640 Кбит/сек
Каналы : 6 каналов
Расположение каналов : Front: L C R, Side: L R, LFE
Частота : 48,0 КГц
Битовая глубина : 16 бит
Метод сжатия : С потерями
Размер потока : 571 Мбайт (6%)
Заголовок : AC3 / 5.1 ch / 640 kbps / Английский original, BD US
Язык : English
Default : Нет
Forced : Нет

Текст #1
Идентификатор : 4
Формат : UTF-8
Идентификатор кодека : S_TEXT/UTF8
Идентификатор кодека/Информация : UTF-8 Plain Text
Заголовок : Forced, BD CEE
Язык : Russian
Default : Да
Forced : Нет

Текст #2
Идентификатор : 5
Формат : UTF-8
Идентификатор кодека : S_TEXT/UTF8
Идентификатор кодека/Информация : UTF-8 Plain Text
Заголовок : Full, BD CEE
Язык : Russian
Default : Нет
Forced : Нет

Текст #3
Идентификатор : 6
Формат : UTF-8
Идентификатор кодека : S_TEXT/UTF8
Идентификатор кодека/Информация : UTF-8 Plain Text
Заголовок : Full, Voronine
Язык : Russian
Default : Нет
Forced : Нет

Текст #4
Идентификатор : 7
Формат : UTF-8
Идентификатор кодека : S_TEXT/UTF8
Идентификатор кодека/Информация : UTF-8 Plain Text
Заголовок : Full, mod. BD US
Язык : English
Default : Нет
Forced : Нет

Текст #5
Идентификатор : 8
Формат : UTF-8
Идентификатор кодека : S_TEXT/UTF8
Идентификатор кодека/Информация : UTF-8 Plain Text
Заголовок : SDH, BD US
Язык : English
Default : Нет
Forced : Нет

Текст #6
Идентификатор : 9
Формат : UTF-8
Идентификатор кодека : S_TEXT/UTF8
Идентификатор кодека/Информация : UTF-8 Plain Text
Заголовок : SDH-COLOR, mod. BD US
Язык : English
Default : Нет
Forced : Нет

Меню
00:00:00.000 : :Chapter 01
00:04:31.354 : :Chapter 02
00:12:51.812 : :Chapter 03
00:21:25.284 : :Chapter 04
00:27:20.138 : :Chapter 05
00:35:30.336 : :Chapter 06
00:40:06.779 : :Chapter 07
00:46:16.023 : :Chapter 08
00:52:22.180 : :Chapter 09
01:01:59.716 : :Chapter 10
01:07:59.408 : :Chapter 11
01:16:25.831 : :Chapter 12
01:22:08.173 : :Chapter 13
01:25:31.751 : :Chapter 14
01:30:22.542 : :Chapter 15
01:36:30.367 : :Chapter 16
01:40:29.106 : :Chapter 17
01:46:27.422 : :Chapter 18
01:53:05.320 : :Chapter 19
01:58:23.846 : :Chapter 20
Свернуть
еще скриншоты
Изображение Изображение Изображение Изображение Изображение Изображение Изображение Изображение Изображение Изображение Изображение Изображение Изображение Изображение Изображение Изображение
Свернуть
 shum369 нравится это.
Не в сети
Профиль  
 Добавлено: 2013-08-05 20:03 (спустя 12 минут)
Руководитель релиз-группы
Аватара пользователя
Стаж: 7 лет 2 месяца
Возраст: 4
Сообщений: 5213
Спасибок: 19350
Лайков: 2312
от Youtracker релиз :)
_________________
Изображение

Изображение
Не в сети
Профиль  
 Добавлено: 2013-08-19 13:20 (спустя 13 дней)
Аватара пользователя
Стаж: 3 года 7 месяцев
Возраст: 36
Сообщений: 212
Спасибок: 1248
Спасибо. Скорость супер!
Изображение
Не в сети
Профиль  
 Добавлено: 2013-08-19 19:51 (спустя 6 часов)
Стаж: 6 лет 1 месяц
Возраст: 25
Сообщений: 15
Лайков: 2
Раздайте.задрали сваливать..
Не в сети
Профиль  
Начать новую темуОтветить на тему  [ Сообщений: 4 ] 
Вы не можете начинать темы
Вы не можете отвечать на сообщения
Вы не можете редактировать свои сообщения
Вы не можете удалять свои сообщения