Правила форума

  • В этом разделе создание новых тем Запрещено.
  • Для создания новых тем пользуйтесь Корневым разделом DVD и HD фильмы.
Начать новую темуОтветить на тему  [ 1 сообщение ] 
Торрент файл
Размер: 9.15 GB • Зарегистрирован: 3 года 11 месяцев • Статус: Проверено
Скачан: 53 раза • Желающих скачать: 0 • Поблагодарили: 20 раз
 Раздают: 0  |  0 KB/s  ]   Качают: 0  |  0 KB/s  ] 
 Полного источника не было 2 года 9 месяцев 
Сообщения
 Добавлено: 2012-12-13 16:50
Top-seeder
Аватара пользователя
Стаж: 9 лет
Сообщений: 1399
Спасибок: 28652
Лайков: 8
Оборотень: Зверь среди нас / Werewolf: The Beast Among Us

Изображение

Год выпуска: 2012
Страна: США
Жанр: ужасы, триллер, приключения
Продолжительность: 01:33:23
Перевод 1: Профессиональный (дублированный)
Перевод 2: Любительский (двухголосый закадровый) den904 & DeadSno
Оригинальная аудиодорожка: Английская
Субтитры: Русские (antoniolagrande), английские (Full, Full SDH)
Студия: Universal 1440 Entertainment

Режиссёр: Луи Морно / Louis Morneau

В ролях: Стивен Бауэр, Эд Куинн, Ниа Пиплз, Стивен Ри, Золтан Бутуч, Рэйчел ДиПилло, Ана Улару, Адам Кроусделл, Гай Уилсон, Разван Георгиу и др.

Описание: Действие фильма разворачивается в небольшой деревушке девятнадцатого века. Молодой человек, изучающий врачебное дело под руководством местного доктора, решает вступить в ряды охотников за оборотнями, когда жители деревни начинают гибнуть один за другим от лап неведомого зверя. Кто он, этот монстр? Один из жителей деревни или нечто совершенно неведомое? Человек днём, чудовище ночью.

Качество: BDRip 1080p
Контейнер: MKV
Видео кодек: x264
Аудио кодек: AC3 / DTS
Видео: MPEG-4 AVC Video / 10.6 Mbps / 1920x1080p / 23,976 fps / 16:9 / 0.214 bit/pix / High@L4.1
Аудио #1: Русский / AC3 / 384 kbps / 5.1 / 48 kHz / 16-bit (Dub)
Аудио #2: Русский / DTS / 1536 kbps / 5.1 / 48 kHz / 24-bit (DVO den904 & DeadSno)
Аудио #3: English / DTS / 1536 kbps / 5.1 / 48 kHz / 24-bit (Оригинал)
Навигация по главам: Есть

MediaInfo
Общее
Уникальный идентификатор : 241307077245553109530930043631082963504 (0xB58A0D76464D6324BE814D0FA8788230)
Полное имя : D:\Закачки\Оборотень - Зверь среди нас (Werewolf - The Beast Among Us).mkv
Формат : Matroska
Размер файла : 9,15 Гбайт
Продолжительность : 1 ч. 33 м.
Общий поток : 14,0 Мбит/сек
Название фильма : GORENOISE
Дата кодирования : UTC 2010-02-22 21:41:31
Программа кодирования : mkvmerge v5.9.0 ('On The Loose') built on Dec 9 2012 15:37:01
Библиотека кодирования : libebml v1.3.0 + libmatroska v1.4.0

Видео
Идентификатор : 1
Формат : AVC
Формат/Информация : Advanced Video Codec
Профиль формата : High@L4.1
Параметр CABAC формата : Да
Параметр ReFrames формата : 4 кадра
Идентификатор кодека : V_MPEG4/ISO/AVC
Продолжительность : 1 ч. 33 м.
Битрейт : 10,6 Мбит/сек
Ширина : 1920 пикс.
Высота : 1080 пикс.
Соотношение сторон : 16:9
Частота кадров : 23,976 кадр/сек
Цветовое пространство : YUV
Подвыборка цветности : 4:2:0
Битовая глубина : 8 бит
Тип развёртки : Прогрессивная
Бит/(Пиксели*Кадры) : 0.214
Размер потока : 6,75 Гбайт (74%)
Заголовок : GORENOISE
Библиотека кодирования : x264 core 125 r2208 d9d2288
Настройки программы : cabac=1 / ref=4 / deblock=1:-3:-3 / analyse=0x3:0x113 / me=umh / subme=10 / psy=1 / psy_rd=1.05:0.10 / mixed_ref=1 / me_range=32 / chroma_me=1 / trellis=2 / 8x8dct=1 / cqm=0 / deadzone=21,11 / fast_pskip=0 / chroma_qp_offset=-2 / threads=8 / lookahead_threads=1 / sliced_threads=0 / nr=0 / decimate=1 / interlaced=0 / bluray_compat=0 / constrained_intra=0 / bframes=5 / b_pyramid=2 / b_adapt=2 / b_bias=0 / direct=3 / weightb=1 / open_gop=0 / weightp=2 / keyint=250 / keyint_min=23 / scenecut=40 / intra_refresh=0 / rc=2pass / mbtree=0 / bitrate=10632 / ratetol=1.0 / qcomp=0.70 / qpmin=0 / qpmax=69 / qpstep=4 / cplxblur=20.0 / qblur=0.5 / ip_ratio=1.40 / pb_ratio=1.30 / aq=2:1.00
Язык : English

Аудио #1
Идентификатор : 2
Формат : AC-3
Формат/Информация : Audio Coding 3
Расширение режима : CM (complete main)
Идентификатор кодека : A_AC3
Продолжительность : 1 ч. 33 м.
Вид битрейта : Постоянный
Битрейт : 384 Кбит/сек
Каналы : 6 каналов
Расположение каналов : Front: L C R, Side: L R, LFE
Частота : 48,0 КГц
Битовая глубина : 16 бит
Метод сжатия : С потерями
Размер потока : 257 Мбайт (3%)
Заголовок : Профессиональный (дублированный)
Язык : Russian

Аудио #2
Идентификатор : 3
Формат : DTS
Формат/Информация : Digital Theater Systems
Идентификатор кодека : A_DTS
Продолжительность : 1 ч. 33 м.
Вид битрейта : Постоянный
Битрейт : 1510 Кбит/сек
Каналы : 6 каналов
Расположение каналов : Front: L C R, Side: L R, LFE
Частота : 48,0 КГц
Битовая глубина : 24 бит
Метод сжатия : С потерями
Размер потока : 1009 Мбайт (11%)
Заголовок : Любительский (двухголосый закадровый) den904 & DeadSno
Язык : Russian

Аудио #3
Идентификатор : 4
Формат : DTS
Формат/Информация : Digital Theater Systems
Идентификатор кодека : A_DTS
Продолжительность : 1 ч. 33 м.
Вид битрейта : Постоянный
Битрейт : 1510 Кбит/сек
Каналы : 6 каналов
Расположение каналов : Front: L C R, Side: L R, LFE
Частота : 48,0 КГц
Битовая глубина : 24 бит
Метод сжатия : С потерями
Размер потока : 1009 Мбайт (11%)
Заголовок : Оригинал
Язык : English

Текст #1
Идентификатор : 5
Формат : UTF-8
Идентификатор кодека : S_TEXT/UTF8
Идентификатор кодека/Информация : UTF-8 Plain Text
Заголовок : antoniolagrande
Язык : Russian

Текст #2
Идентификатор : 6
Формат : UTF-8
Идентификатор кодека : S_TEXT/UTF8
Идентификатор кодека/Информация : UTF-8 Plain Text
Заголовок : Full
Язык : English

Текст #3
Идентификатор : 7
Формат : UTF-8
Идентификатор кодека : S_TEXT/UTF8
Идентификатор кодека/Информация : UTF-8 Plain Text
Заголовок : Full SDH
Язык : English

Меню
00:00:00.000 : en:
00:03:40.886 : en:
00:08:21.083 : en:
00:13:13.250 : en:
00:16:07.508 : en:
00:21:14.022 : en:
00:26:29.713 : en:
00:31:57.748 : en:
00:36:37.069 : en:
00:41:07.256 : en:
00:46:22.571 : en:
00:51:03.810 : en:
00:54:51.621 : en:
00:58:31.131 : en:
01:04:22.608 : en:
01:07:55.821 : en:
01:13:54.847 : en:
01:17:14.254 : en:
01:21:19.040 : en:
01:26:37.149 : en:

Свернуть

Скриншоты
ИзображениеИзображениеИзображениеИзображениеИзображениеИзображение
Свернуть
Не в сети
Профиль  
Начать новую темуОтветить на тему  [ 1 сообщение ] 
Вы не можете начинать темы
Вы не можете отвечать на сообщения
Вы не можете редактировать свои сообщения
Вы не можете удалять свои сообщения