Правила форума

  • В этом разделе создание новых тем Запрещено.
  • Для создания новых тем пользуйтесь Корневым разделом DVD и HD фильмы.
Начать новую темуОтветить на тему  [ 1 сообщение ] 
Торрент файл
Размер: 11.38 GB • Зарегистрирован: 4 года 5 месяцев • Статус: Проверено
Скачан: 13 раз • Желающих скачать: 0 • Поблагодарили: 4 раза
 Раздают: 0  |  0 KB/s  ]   Качают: 0  |  0 KB/s  ] 
 Полного источника не было 2 года 7 месяцев 
Сообщения
 Добавлено: 2012-06-30 09:19
Модератор релиз-группы
Аватара пользователя
Стаж: 9 лет 1 месяц
Возраст: 97
Сообщений: 11659
Спасибок: 6530
Лайков: 269
Образцовый самец. / Zoolander.


Изображение


Год выпуска: 2001
Страна: США, Германия, Австралия.
Жанр: Комедия.
Продолжительность: 01:29:12
Перевод: Многоголосый закадровый x4
Одноголосый закадровый, Ю.Живов

Режиссер: Бен Стиллер.

В ролях: Бен Стиллер, Оуэн Уилсон, Кристин Тейлор, Уилл Феррелл, Милла Йовович, Джеррим Стиллер, Дэвид Духовны, Джон Войт, Джуда Фридлендер, Натан Ли Грэхэм.
Описание: Дерек Зуландер — мужчина-модель № 1 в мире. Точнее, он был лучшим в течение последних лет. На церемонии вручения премии мужчинам-моделям в этом году приз у него отобрал главный конкурент Хэнсел.
Еще через несколько дней по нелепому стечению обстоятельств при взрыве бензоколонки погибают три лучших друга Дерека. После этого ему приходит в голову ужасная для мужчины-модели мысль: а что если смысл жизни заключается в чем-то еще, кроме как во внешности?
Затем ведущий модельер приглашает Дерека стать новым лицом его марки. Наивный Зуландер не предполает, что его ждет западня…
Изображение
Качество: BDRip 1080p
Формат: mkv
Видео кодек: AVC(H.264)
Аудио кодек: DTS, AC3
Видео: 1920x816 at 23.976 fps, x264@L4.1, 2pass, ~15200 kbps avg.
Аудио#1: Russian: 48 kHz, DTS, 3/2 (L,C,R,l,r) + LFE ch, ~1536 kbps avg |Многоголосый закадровый, Карусель|
Аудио#2: Russian: 48 kHz, AC3, 3/2 (L,C,R,l,r) + LFE ch, ~384 kbps avg |Многоголосый закадровый|
Аудио#3: Russian: 48 kHz, AC3, 2/0 (L,R) ch, ~192 kbps avg |Многоголосый закадровый, НТВ+|
Аудио#4: Russian: 48 kHz, AC3, 2/0 (L,R) ch, ~192 kbps avg |Многоголосый закадровый|
Аудио#5: Russian: 48 kHz, DTS, 3/2 (L,C,R,l,r) + LFE ch, ~1536 kbps avg |Одноголосый закадровый, Ю.Живов|


"Скриншоты"

Изображение

Изображение

Изображение
Свернуть
Mi
Format : Matroska
Format version : Version 2
File size : 11.4 GiB
Duration : 1h 29mn
Overall bit rate : 18.3 Mbps
Encoded date : UTC 2012-06-30 05:55:51
Writing application : mkvmerge v5.6.0 ('Kenya Kane') built on May 27 2012 16:44:04
Writing library : libebml v1.2.3 + libmatroska v1.3.0

Video
ID : 1
Format : AVC
Format/Info : Advanced Video Codec
Format profile : High@L4.1
Format settings, CABAC : Yes
Format settings, ReFrames : 5 frames
Codec ID : V_MPEG4/ISO/AVC
Duration : 1h 29mn
Bit rate : 14.1 Mbps
Width : 1 920 pixels
Height : 816 pixels
Display aspect ratio : 2.35:1
Frame rate : 23.976 fps
Color space : YUV
Chroma subsampling : 4:2:0
Bit depth : 8 bits
Scan type : Progressive
Bits/(Pixel*Frame) : 0.375
Stream size : 8.79 GiB (77%)
Title : EbP
Writing library : x264 core 125 r2200 999b753
Encoding settings : cabac=1 / ref=5 / deblock=1:-3:-3 / analyse=0x3:0x113 / me=tesa / subme=11 / psy=1 / psy_rd=1.05:0.00 / mixed_ref=1 / me_range=16 / chroma_me=1 / trellis=2 / 8x8dct=1 / cqm=0 / deadzone=21,11 / fast_pskip=0 / chroma_qp_offset=-2 / threads=6 / lookahead_threads=1 / sliced_threads=0 / nr=0 / decimate=0 / interlaced=0 / bluray_compat=0 / constrained_intra=0 / bframes=9 / b_pyramid=2 / b_adapt=2 / b_bias=0 / direct=3 / weightb=1 / open_gop=0 / weightp=2 / keyint=250 / keyint_min=23 / scenecut=40 / intra_refresh=0 / rc=crf / mbtree=0 / crf=17.2 / qcomp=0.60 / qpmin=0 / qpmax=69 / qpstep=4 / ip_ratio=1.40 / pb_ratio=1.20 / aq=1:0.72
Language : English
Default : No
Forced : No

Audio #1
ID : 2
Format : DTS
Format/Info : Digital Theater Systems
Codec ID : A_DTS
Duration : 1h 29mn
Bit rate mode : Constant
Bit rate : 1 510 Kbps
Channel(s) : 6 channels
Channel positions : Front: L C R, Side: L R, LFE
Sampling rate : 48.0 KHz
Bit depth : 24 bits
Compression mode : Lossy
Stream size : 963 MiB (8%)
Title : DTS 5.1 @ 1536 kbps - Многоголосый закадровый, Карусель
Language : Russian
Default : Yes
Forced : No

Audio #2
ID : 3
Format : AC-3
Format/Info : Audio Coding 3
Mode extension : CM (complete main)
Format settings, Endianness : Big
Codec ID : A_AC3
Duration : 1h 29mn
Bit rate mode : Constant
Bit rate : 384 Kbps
Channel(s) : 6 channels
Channel positions : Front: L C R, Side: L R, LFE
Sampling rate : 48.0 KHz
Bit depth : 16 bits
Compression mode : Lossy
Stream size : 245 MiB (2%)
Title : AC3 5.1 @ 384 kbps - Многоголосый закадровый
Language : Russian
Default : No
Forced : No

Audio #3
ID : 4
Format : AC-3
Format/Info : Audio Coding 3
Mode extension : CM (complete main)
Format settings, Endianness : Big
Codec ID : A_AC3
Duration : 1h 29mn
Bit rate mode : Constant
Bit rate : 192 Kbps
Channel(s) : 2 channels
Channel positions : Front: L R
Sampling rate : 48.0 KHz
Bit depth : 16 bits
Compression mode : Lossy
Stream size : 123 MiB (1%)
Title : AC3 2.0 @ 192 kbps - Многоголосый закадровый, НТВ+
Language : Russian
Default : No
Forced : No

Audio #4
ID : 5
Format : AC-3
Format/Info : Audio Coding 3
Mode extension : CM (complete main)
Format settings, Endianness : Big
Codec ID : A_AC3
Duration : 1h 29mn
Bit rate mode : Constant
Bit rate : 192 Kbps
Channel(s) : 2 channels
Channel positions : Front: L R
Sampling rate : 48.0 KHz
Bit depth : 16 bits
Compression mode : Lossy
Stream size : 123 MiB (1%)
Title : AC3 2.0 @ 192 kbps - Многоголосый закадровый
Language : Russian
Default : No
Forced : No

Audio #5
ID : 6
Format : DTS
Format/Info : Digital Theater Systems
Codec ID : A_DTS
Duration : 1h 29mn
Bit rate mode : Constant
Bit rate : 1 510 Kbps
Channel(s) : 6 channels
Channel positions : Front: L C R, Side: L R, LFE
Sampling rate : 48.0 KHz
Bit depth : 24 bits
Compression mode : Lossy
Stream size : 963 MiB (8%)
Title : DTS 5.1 @ 1536 kbps - Одноголосый закадровый, Ю.Живов
Language : Russian
Default : No
Forced : No

Menu #1
00:00:00.000 : :00:00:00.000
00:02:51.630 : :00:02:51.630
00:03:44.474 : :00:03:44.474
00:11:32.191 : :00:11:32.191
00:13:22.802 : :00:13:22.802
00:16:31.365 : :00:16:31.365
00:18:54.633 : :00:18:54.633
00:20:50.708 : :00:20:50.708
00:22:10.579 : :00:22:10.579
00:23:14.893 : :00:23:14.893
00:24:00.230 : :00:24:00.230
00:26:45.813 : :00:26:45.813
00:32:57.934 : :00:32:57.934
00:35:46.978 : :00:35:46.978
00:38:27.222 : :00:38:27.222
00:39:03.841 : :00:39:03.841
00:43:10.296 : :00:43:10.296
00:47:47.239 : :00:47:47.239
00:49:01.730 : :00:49:01.730
00:54:53.540 : :00:54:53.540
00:58:06.900 : :00:58:06.900
01:02:57.148 : :01:02:57.148
01:06:23.938 : :01:06:23.938
01:08:31.733 : :01:08:31.733
01:11:10.016 : :01:11:10.016
01:12:34.684 : :01:12:34.684
01:14:48.943 : :01:14:48.943
01:16:24.288 : :01:16:24.288
01:18:36.003 : :01:18:36.003
01:21:11.825 : :01:21:11.825

Menu #2
00:00:00.097 : en:00:00:00.097

Свернуть
_________________
Изображение
Не в сети
Профиль  
Начать новую темуОтветить на тему  [ 1 сообщение ] 
Вы не можете начинать темы
Вы не можете отвечать на сообщения
Вы не можете редактировать свои сообщения
Вы не можете удалять свои сообщения