Правила форума

  • В этом разделе создание новых тем Запрещено.
  • Для создания новых тем пользуйтесь Корневым разделом DVD и HD фильмы.
Начать новую темуОтветить на тему  [ Сообщений: 6 ] 
Торрент файл
Размер: 4.15 GB • Зарегистрирован: 3 года 6 месяцев • Статус: Проверено
Скачан: 78 раз • Желающих скачать: 0 • Поблагодарили: 19 раз
 Раздают: 0  |  0 KB/s  ]   Качают: 0  |  0 KB/s  ] 
 Полного источника не было 7 дней 
Сообщения
 Добавлено: 2013-05-15 17:25
Аватара пользователя
Стаж: 7 лет 2 месяца
Сообщений: 7167
Спасибок: 82010
Лайков: 2438
Обрезание / Excision

Изображение


Год выпуска: 2012
Страна: США
Жанр: ужасы, драма
Продолжительность: 01:21:17
Перевод: Авторский одноголосый (zamez) + Оригинальная звуковая дорожка

Режиссёр: Ричард Бейтс мл.
В ролях: АннаЛинн МакКорд, Трейси Лордс, Эриель Винтер, Роджер Барт, Джереми Самптер, Джон Уотерс, Малкольм МакДауэлл, Марли Мэтлин, Мэттью Грей Гублер, Рэй Уайз
Описание: История Полин, девушки-подростка, изгоя. Полин одержима бредовыми идеями: насилие, убийства на дорогах, пытки. Естественно, ее мечтания отторгают от девушки и одноклассников, и родителей. Никто не понимает Полин, кроме её младшей сестры Грейс, страдающей муковисцидозом. Полин думает, что вернуть любовь близких ей поможет спасение сестры и для этого Полин решает сделать малышке операцию…


Качество: BDRip 720p
Формат: MKV
Видео кодек: H264 (AVC)
Аудио кодек: MP3 (MPEG1 Layer 3)
Видео: 1 280x528, 23.976 fps, 6 494 Kbps
Аудио #1: 48.0 KHz, 2 ch, 256 Kbps [Авторский одноголосый (zamez)]
Аудио #2: 48.0 KHz, 6 ch, 640 Kbps [Оригинальная звуковая дорожка]
Изображение
Скриншоты
Изображение

Изображение

Изображение

Изображение
Свернуть
MI
General
Unique ID : 214576604593229872048624287748533183321 (0xA16DF3689E60B284BBDF964971B2E359)
Complete name : Обрезание.2012.mkv
Format : Matroska
Format version : Version 2
File size : 4.15 GiB
Duration : 1h 21mn
Overall bit rate mode : Variable
Overall bit rate : 7 304 Kbps
Encoded date : UTC 2012-11-27 17:06:04
Writing application : mkvmerge v5.8.0 ('No Sleep / Pillow') built on Sep 2 2012 15:37:04
Writing library : libebml v1.2.3 + libmatroska v1.3.0

Video
ID : 1
Format : AVC
Format/Info : Advanced Video Codec
Format profile : High@L4.1
Format settings, CABAC : Yes
Format settings, ReFrames : 3 frames
Codec ID : V_MPEG4/ISO/AVC
Duration : 1h 21mn
Bit rate mode : Variable
Bit rate : 6 404 Kbps
Maximum bit rate : 40.0 Mbps
Width : 1 280 pixels
Height : 528 pixels
Display aspect ratio : 2.40:1
Frame rate : 23.976 fps
Color space : YUV
Chroma subsampling : 4:2:0
Bit depth : 8 bits
Scan type : Progressive
Bits/(Pixel*Frame) : 0.395
Stream size : 3.56 GiB (86%)
Writing library : x264 core 116 r2074 2641b9e
Encoding settings : cabac=1 / ref=4 / deblock=1:0:0 / analyse=0x3:0x113 / me=hex / subme=7 / psy=1 / psy_rd=1.00:0.00 / mixed_ref=1 / me_range=16 / chroma_me=1 / trellis=1 / 8x8dct=1 / cqm=0 / deadzone=21,11 / fast_pskip=1 / chroma_qp_offset=-2 / threads=3 / sliced_threads=0 / slices=4 / nr=0 / decimate=1 / interlaced=0 / bluray_compat=0 / constrained_intra=0 / bframes=3 / b_pyramid=1 / b_adapt=1 / b_bias=0 / direct=1 / weightb=1 / open_gop=0 / weightp=0 / keyint=24 / keyint_min=2 / scenecut=40 / intra_refresh=0 / rc_lookahead=24 / rc=2pass / mbtree=1 / bitrate=6404 / ratetol=1.0 / qcomp=0.60 / qpmin=10 / qpmax=51 / qpstep=4 / cplxblur=20.0 / qblur=0.5 / vbv_maxrate=40000 / vbv_bufsize=30000 / nal_hrd=vbr / ip_ratio=1.40 / aq=1:1.00
Language : English
Default : Yes
Forced : No

Audio #1
ID : 2
Format : MPEG Audio
Format version : Version 1
Format profile : Layer 3
Mode : Joint stereo
Codec ID : A_MPEG/L3
Codec ID/Hint : MP3
Duration : 1h 21mn
Bit rate mode : Constant
Bit rate : 256 Kbps
Channel(s) : 2 channels
Sampling rate : 48.0 KHz
Compression mode : Lossy
Stream size : 149 MiB (4%)
Writing library : LAME3.98.2
Language : Russian
Default : Yes
Forced : No

Audio #2
ID : 3
Format : AC-3
Format/Info : Audio Coding 3
Mode extension : CM (complete main)
Format settings, Endianness : Big
Codec ID : A_AC3
Duration : 1h 21mn
Bit rate mode : Constant
Bit rate : 640 Kbps
Channel(s) : 6 channels
Channel positions : Front: L C R, Side: L R, LFE
Sampling rate : 48.0 KHz
Bit depth : 16 bits
Compression mode : Lossy
Stream size : 372 MiB (9%)
Default : No
Forced : No


Свернуть
 rotametr нравится это.
Не в сети
Профиль  
 Добавлено: 2013-05-16 18:08 (спустя 1 день)
Аватара пользователя
Стаж: 6 лет 6 месяцев
Возраст: 26
Сообщений: 360
Спасибок: 62
Лайков: 24
жажду отзывов!
_________________
Изображение
Изображение
Не в сети
Профиль  
 Добавлено: 2013-05-16 21:53 (спустя 3 часа)
Модератор
Аватара пользователя
Стаж: 9 лет
Возраст: 34
Сообщений: 2197
Спасибок: 6835
Лайков: 31
еврейский фильм ужасов "Обрезание"
_________________
Не в сети
Профиль  
 Добавлено: 2013-05-22 22:02 (спустя 6 дней)
Аватара пользователя
Стаж: 3 года 10 месяцев
Сообщений: 7
Спасибок: 3
неплохой фильмец в психоделическом стиле...
разок можно и посмотреть, отвлечся от стрелялок и бомбилок...
_________________
Точка зрения зависит от точки сидения.
Не в сети
Профиль  
 Добавлено: 2013-06-21 09:10 (спустя 29 дней)
Стаж: 8 лет 1 месяц
Сообщений: 85
Спасибок: 95
на раз.....в целом херня
Не в сети
Профиль  
 Добавлено: 2013-06-21 14:11 (спустя 5 часов)
Аватара пользователя
Стаж: 8 лет 9 месяцев
Сообщений: 1170
Спасибок: 1294
Лайков: 7

DLINoff:

разок можно и посмотреть, отвлечся от стрелялок и бомбилок...
променять их на сиськи и письки? :)
Не в сети
Профиль  
Начать новую темуОтветить на тему  [ Сообщений: 6 ] 
Вы не можете начинать темы
Вы не можете отвечать на сообщения
Вы не можете редактировать свои сообщения
Вы не можете удалять свои сообщения