Правила форума

  • В этом разделе создание новых тем Запрещено.
  • Для создания новых тем пользуйтесь Корневым разделом DVD и HD фильмы.
Начать новую темуОтветить на тему  [ Сообщений: 3 ] 
Торрент файл
Размер: 9.48 GB • Зарегистрирован: 5 лет 3 месяца • Статус: Проверено
Скачан: 163 раза • Желающих скачать: 0 • Поблагодарили: 31 раз
 Раздают: 0  |  0 KB/s  ]   Качают: 0  |  0 KB/s  ] 
 Полного источника не было 3 года 2 месяца 
Сообщения
 Добавлено: 2011-08-06 10:25
Top-releaser
Аватара пользователя
Стаж: 8 лет 7 месяцев
Сообщений: 1286
Спасибок: 3420
Лайков: 7
Обряд
The Rite

«You can only defeat it when you believe.»

Изображение

Страна: Изображение США
Жанр: Ужасы, триллер, драма
Год выпуска: 2011
Продолжительность: 01:53:42
Перевод: Профессиональный (многоголосый, закадровый)
Субтитры: Русские (2 вида), английские (2 вида)

Режиссер: Микаэль Хофстрём

В ролях: Энтони Хопкинс (Father Lucas Trevant), Колин О’Донохью (Michael Kovak), Алиси Брага (Angeline ), Киаран Хиндс (Father Xavier), Тоби Джонс (Father Matthew), Рутгер Хауэр (Istvan Kovak), Марта Гастини (Rosaria), Мария Грация Кучинотта (Aunt Andria), Арианна Веронези (Francesca), Андре Каллиджари (Vincenzo)

Описание: Студент духовной семинарии, отправляется в Ватикан учиться экзорцизму. При этом он сомневается как в этой противоречивой практике, так и в религии как таковой. Лишь когда он становится учеником легендарного отца Лукаса, который проводил обряд изгнания дьявола тысячи раз, его скептицизм начинает таять.
И вот, когда очередное дело об одержимости дьяволом оказывается не по силам самому отцу Лукасу, молодой семинарист сталкивается лицом к лицу с феноменом, который наука неспособна ни объяснить, ни контролировать. Чтобы выжить в противостоянии с ужасающим злом, ему предстоит понять: во что он действительно верит?
Раздача:Изображение

Изображение6.011
Изображение 6.0/10
Рейтинг на MPAA:PG-13

Формат: BDRip, MKV, H.264, AC3/DTS
Видео: 1920x800p (2,40:1), 23,976 fps, AVC MPEG-4(H.264), High@L4.1, ~8055 kbps avg, 0.219 bit/pixel
Аудио#1: Русский 48 kHz, AC3, 2 Ch, ~192 kbps avg [Профессиональный (многоголосый закадровый)]
Аудио#2: Русский 48 kHz, AC3, 6 Ch, ~384 kbps avg [Любительский (одноголосый)(Zamez)]
Аудио#3: Русский 48 kHz, AC3, 6 Ch, ~384 kbps avg [Любительский (двухголосый)]
Аудио#4: Английский 48 kHz, DTS, 6 ch, ~1510 kbps avg [Оригинал]
MediaInfo
Общее
Уникальный идентификатор : 207865380501237580091556500347306861920 (0x9C616A839EFDE056AA11CDE806A76560)
Полное имя : E:\Видео\obrajd_[RG.KINOvNINO].mkv
Формат : Matroska
Версия формата : Version 2
Размер файла : 9,48 Гбайт
Продолжительность : 2 ч. 6 м.
Общий поток : 10,7 Мбит/сек
Дата кодирования : UTC 2011-07-08 21:00:24
Программа кодирования : mkvmerge v4.0.0 ('The Stars were mine') сборка от Jun 6 2010 16:18:42
Библиотека кодирования : libebml v1.0.0 + libmatroska v1.0.0

Видео
Идентификатор : 1
Формат : AVC
Формат/Информация : Advanced Video Codec
Профиль формата : High@L4.1
Параметр CABAC формата : Да
Параметр ReFrames формата : 5 кадров
Параметры GOP формата : M=1, N=51
Идентификатор кодека : V_MPEG4/ISO/AVC
Продолжительность : 2 ч. 6 м.
Битрейт : 8055 Кбит/сек
Номинальный битрейт : 9456 Кбит/сек
Ширина : 1920 пикс.
Высота : 800 пикс.
Соотношение сторон : 2,40:1
Частота кадров : 23,976 кадр/сек
Цветовое пространство : YUV
Подвыборка цветности : 4:2:0
Битовая глубина : 8 бит
Тип развёртки : Прогрессивная
Бит/(Пиксели*Кадры) : 0.219
Размер потока : 7,11 Гбайт (75%)
Заголовок : The.Rite.2011
Библиотека кодирования : x264 core 114 r1924 08d04a4
Настройки программы : cabac=1 / ref=5 / deblock=1:-3:-3 / analyse=0x3:0x113 / me=umh / subme=10 / psy=1 / psy_rd=1.00:0.05 / mixed_ref=1 / me_range=32 / chroma_me=1 / trellis=2 / 8x8dct=1 / cqm=2 / deadzone=21,11 / fast_pskip=0 / chroma_qp_offset=-2 / threads=12 / sliced_threads=0 / nr=0 / decimate=1 / interlaced=0 / constrained_intra=0 / bframes=6 / b_pyramid=2 / b_adapt=2 / b_bias=0 / direct=3 / weightb=1 / open_gop=0 / weightp=2 / keyint=250 / keyint_min=23 / scenecut=40 / intra_refresh=0 / rc_lookahead=50 / rc=2pass / mbtree=1 / bitrate=9456 / ratetol=1.0 / qcomp=0.70 / qpmin=1 / qpmax=63 / qpstep=4 / cplxblur=20.0 / qblur=0.5 / vbv_maxrate=40000 / vbv_bufsize=40000 / nal_hrd=none / ip_ratio=1.40 / aq=1:0.80
Язык : English

Аудио #1
Идентификатор : 2
Формат : AC-3
Формат/Информация : Audio Coding 3
Расширение режима : CM (complete main)
Идентификатор кодека : A_AC3
Продолжительность : 2 ч. 6 м.
Вид битрейта : Постоянный
Битрейт : 192 Кбит/сек
Каналы : 2 канала
Расположение каналов : Front: L R
Частота : 48,0 КГц
Битовая глубина : 16 бит
Метод сжатия : С потерями
Задержка видео : 12 мс.
Размер потока : 174 Мбайт (2%)
Заголовок : MVO
Язык : Russian

Аудио #2
Идентификатор : 3
Формат : AC-3
Формат/Информация : Audio Coding 3
Расширение режима : CM (complete main)
Идентификатор кодека : A_AC3
Продолжительность : 2 ч. 6 м.
Вид битрейта : Постоянный
Битрейт : 384 Кбит/сек
Каналы : 6 каналов
Расположение каналов : Front: L C R, Side: L R, LFE
Частота : 48,0 КГц
Битовая глубина : 16 бит
Метод сжатия : С потерями
Размер потока : 347 Мбайт (4%)
Заголовок : AVO (zamez)
Язык : Russian

Аудио #3
Идентификатор : 4
Формат : AC-3
Формат/Информация : Audio Coding 3
Расширение режима : CM (complete main)
Идентификатор кодека : A_AC3
Продолжительность : 2 ч. 6 м.
Вид битрейта : Постоянный
Битрейт : 384 Кбит/сек
Каналы : 6 каналов
Расположение каналов : Front: L C R, Side: L R, LFE
Частота : 48,0 КГц
Битовая глубина : 16 бит
Метод сжатия : С потерями
Размер потока : 347 Мбайт (4%)
Заголовок : DVO
Язык : Russian

Аудио #4
Идентификатор : 5
Формат : DTS
Формат/Информация : Digital Theater Systems
Идентификатор кодека : A_DTS
Продолжительность : 2 ч. 6 м.
Вид битрейта : Постоянный
Битрейт : 1510 Кбит/сек
Каналы : 6 каналов
Расположение каналов : Front: L C R, Side: L R, LFE
Частота : 48,0 КГц
Битовая глубина : 24 бит
Метод сжатия : С потерями
Размер потока : 1,33 Гбайт (14%)
Заголовок : Original
Язык : English

Текст #1
Идентификатор : 6
Формат : UTF-8
Идентификатор кодека : S_TEXT/UTF8
Идентификатор кодека/Информация : UTF-8 Plain Text
Заголовок : Rus 1
Язык : Russian

Текст #2
Идентификатор : 7
Формат : UTF-8
Идентификатор кодека : S_TEXT/UTF8
Идентификатор кодека/Информация : UTF-8 Plain Text
Заголовок : Rus 2
Язык : Russian

Текст #3
Идентификатор : 8
Формат : UTF-8
Идентификатор кодека : S_TEXT/UTF8
Идентификатор кодека/Информация : UTF-8 Plain Text
Заголовок : forsed
Язык : English

Текст #4
Идентификатор : 9
Формат : UTF-8
Идентификатор кодека : S_TEXT/UTF8
Идентификатор кодека/Информация : UTF-8 Plain Text
Заголовок : full
Язык : English

Свернуть
Показать скриншоты
Изображение
Изображение
Изображение
Изображение
Изображение

Свернуть
Не в сети
Профиль  
 Добавлено: 2011-08-24 23:11 (спустя 18 дней)
Стаж: 7 лет 4 месяца
Сообщений: 30
Доверюсь старине Хопкинсу и решусь скачать этот фильм, как пойму что есть сие художество, обязательно отпишусь! :ya_hoo_oo:
Не в сети
Профиль  
 Добавлено: 2013-07-05 19:16 (спустя 1 год 10 месяцев)
Top-releaser
Аватара пользователя
Стаж: 8 лет 7 месяцев
Сообщений: 1286
Спасибок: 3420
Лайков: 7

QAS:

Доверюсь старине Хопкинсу и решусь скачать этот фильм, как пойму что есть сие художество, обязательно отпишусь! :ya_hoo_oo:
Если честно, я немного больше ожидал от этого фильма. Хопкинс как всегда на высоте. Но, увы, ему одному уже не под силу вытащить этот фильм. Вроде бы в всё есть, и смотреть интересно, и смотрел с удовольствием, но чего-то в фильме не хватает, логической развязки что ли?


Тема поднималась пользователем Shamman 2013-07-05 19:16.
Не в сети
Профиль  
Начать новую темуОтветить на тему  [ Сообщений: 3 ] 
Вы не можете начинать темы
Вы не можете отвечать на сообщения
Вы не можете редактировать свои сообщения
Вы не можете удалять свои сообщения