Правила форума

  • В этом разделе создание новых тем Запрещено.
  • Для создания новых тем пользуйтесь Корневым разделом DVD и HD фильмы.
Начать новую темуОтветить на тему  [ 1 сообщение ] 
Торрент файл
Размер: 24.51 GB • Зарегистрирован: 1 год 11 месяцев • Статус: Проверено
Скачан: 43 раза • Желающих скачать: 0 • Поблагодарили: 17 раз
 Раздают: 0  |  0 KB/s  ]   Качают: 0  |  0 KB/s  ] 
 Полного источника не было 10 дней 
Сообщения
 Добавлено: 2015-01-24 22:02
Top-releaser
Аватара пользователя
Стаж: 8 лет 7 месяцев
Сообщений: 1286
Спасибок: 3420
Лайков: 7
Изображение
Общак | The Drop


Год выпуска | 2014
Страна | США
Жанр | драма, криминал

Продолжительность | 01:46:44
Перевод | Профессиональный (полное дублирование)
Режиссер | Михаэль Р. Роскам
Сценарий | Деннис Лихейн
Продюсер | Питер Чернин, Дилан Кларк, Майк Ларокка, Блэр Бреард, Дэвид Гринбаум
Оператор | Николас Каракатсанис
Композитор | Марко Белтрами, Раф Кюнен

В ролях | Том Харди, Нуми Рапас, Джеймс Гандольфини, Маттиас Шонартс, Джон Ортис, Элизабет Родригес, Майкл Аронов, Морган Спектор, Майкл Эспер, Росс Бикелл, Джеймс Фрешвилл, Тобиаш Сигал и др.
Описание | Боб Сагиновски оказывается в центре ограбления, из-за расследования которого может всплыть прошлое района, когда друзья, семьи и заклятые враги - все работали вместе, чтобы выжить...
kinopoisk.ru | 6.919 (4709)
Бюджет | $12 600 000
Мировая премьера | 5 сентября 2014
Знаете ли Вы, что...
  • Экранизация рассказа американского сценариста Дэнниса Лихейна.
  • Первоначально на должность режиссера фильма взяли Нила Бёргера, но он покинул проект, чтобы заняться режиссурой фильма «Дивергент» (2014).
  • Изначально название фильма звучало как «Спасение животных» (Animal Rescue), но в январе 2014 было изменено на «Общак» (The Drop).
  • Это первый англоязычный фильм режиссера Михаэля Р. Роскама.
  • Роль Рокко исполняли три разные собаки, чтобы в фильме собака росла постепенно.
  • еще 2 факта
Свернуть

Качество | BD Remux
Контейнер | BDAV
Видео | AVC, 1920x1080 (16:9), 28938 kbps, 23,976 fps, 0,582 bit/pixel
Аудио №1 | AC3, 384 kbps, CBR, 6 channels, 16 bit
Аудио №2 | DTS-HD, 1560 kbps, VBR, 6 channels, 24 bit
Аудио №3 | AC3, 448 kbps, CBR, 6 channels, 16 bit
Аудио №4 | AC3, 224 kbps, CBR, 2 channels, 16 bit

MediaInfo
General
ID : 1 (0x1)
Complete name : D:\Видео\THE_DROP_REMUX_HDCLUB\BDMV\STREAM\00000.m2ts
Format : BDAV
Format/Info : Blu-ray Video
File size : 24.5 GiB
Duration : 1h 46mn
Overall bit rate mode : Variable
Overall bit rate : 32.9 Mbps
Maximum Overall bit rate : 35.5 Mbps

Video
ID : 4113 (0x1011)
Menu ID : 1 (0x1)
Format : AVC
Format/Info : Advanced Video Codec
Format profile : High@L4.1
Format settings, CABAC : Yes
Format settings, ReFrames : 4 frames
Codec ID : 27
Duration : 1h 46mn
Bit rate mode : Variable
Bit rate : 28.9 Mbps
Maximum bit rate : 31.5 Mbps
Width : 1 920 pixels
Height : 1 080 pixels
Display aspect ratio : 16:9
Frame rate : 23.976 fps
Color space : YUV
Chroma subsampling : 4:2:0
Bit depth : 8 bits
Scan type : Progressive
Bits/(Pixel*Frame) : 0.582
Stream size : 21.6 GiB (88%)

Audio #1
ID : 4352 (0x1100)
Menu ID : 1 (0x1)
Format : AC-3
Format/Info : Audio Coding 3
Mode extension : CM (complete main)
Codec ID : 129
Duration : 1h 46mn
Bit rate mode : Constant
Bit rate : 384 Kbps
Channel(s) : 6 channels
Channel positions : Front: L C R, Side: L R, LFE
Sampling rate : 48.0 KHz
Bit depth : 16 bits
Compression mode : Lossy
Stream size : 293 MiB (1%)

Audio #2
ID : 4353 (0x1101)
Menu ID : 1 (0x1)
Format : DTS
Format/Info : Digital Theater Systems
Format profile : MA / Core
Muxing mode : Stream extension
Codec ID : 134
Duration : 1h 46mn
Bit rate mode : Variable
Bit rate : 1 561 Kbps / 1 510 Kbps
Channel(s) : 6 channels
Channel positions : Front: L C R, Side: L R, LFE
Sampling rate : 48.0 KHz
Bit depth : 24 bits
Compression mode : Lossless / Lossy

Audio #3
ID : 4354 (0x1102)
Menu ID : 1 (0x1)
Format : AC-3
Format/Info : Audio Coding 3
Mode extension : CM (complete main)
Codec ID : 129
Duration : 1h 46mn
Bit rate mode : Constant
Bit rate : 448 Kbps
Channel(s) : 6 channels
Channel positions : Front: L C R, Side: L R, LFE
Sampling rate : 48.0 KHz
Bit depth : 16 bits
Compression mode : Lossy
Stream size : 342 MiB (1%)

Audio #4
ID : 4355 (0x1103)
Menu ID : 1 (0x1)
Format : AC-3
Format/Info : Audio Coding 3
Mode extension : CM (complete main)
Codec ID : 129
Duration : 1h 46mn
Bit rate mode : Constant
Bit rate : 224 Kbps
Channel(s) : 2 channels
Channel positions : Front: L R
Sampling rate : 48.0 KHz
Bit depth : 16 bits
Compression mode : Lossy
Stream size : 171 MiB (1%)
Свернуть

Скриншоты

Изображение

Изображение

Изображение

Изображение

Изображение

Изображение

Изображение
Свернуть


Тема поднималась пользователем Shamman 2015-01-24 22:02.
Не в сети
Профиль  
Начать новую темуОтветить на тему  [ 1 сообщение ] 
Вы не можете начинать темы
Вы не можете отвечать на сообщения
Вы не можете редактировать свои сообщения
Вы не можете удалять свои сообщения