Правила форума

  • В этом разделе создание новых тем Запрещено.
  • Для создания новых тем пользуйтесь Корневым разделом DVD и HD фильмы.
Начать новую темуОтветить на тему  [ 1 сообщение ] 
Торрент файл
Размер: 5.18 GB • Зарегистрирован: 4 года 9 месяцев • Статус: Проверено
Скачан: 103 раза • Желающих скачать: 0 • Поблагодарили: 14 раз
 Раздают: 0  |  0 KB/s  ]   Качают: 0  |  0 KB/s  ] 
 Полного источника не было 2 года 9 месяцев 
Сообщения
 Добавлено: 2012-02-29 17:11
Top-seeder
Аватара пользователя
Стаж: 9 лет
Сообщений: 1399
Спасибок: 28651
Лайков: 8
Очень опасная штучка

Изображение


Информация о фильме
Название: Очень опасная штучка
Оригинальное название: One for the Money
Год выхода: 2012
Жанр: комедия
Режиссер: Джули Энн Робинсон
В ролях: Кэтрин Хайгл, Джейсон О’Мара, Дэниел Сунджата, Джон Легуизамо, Шерри Шеперд, Дебби Рейнолдс, Дебра Монк, Нат Муни, Адам Пол, Фишер Стивенс

О фильме:
Продавщица нижнего белья в отставке Стэфани Плам нашла новую работу. Отныне она охотится на мужчин, за поимку которых назначена солидная награда. Ее главное оружие - женская интуиция и модные туфли на высоких каблуках. Но даже они бессильны перед главной целью - мужчиной ее мечты. Он красив, остроумен и смертельно опасен, и при этом он её бывший.

Выпущено: CША / Lakeshore Entertainment, Sidney Kimmel Entertainment See more
Продолжительность: 01:31:18
Озвучивание: Дублированное [лицензия]

Файл
Формат: MKV
Качество: BDRip 720p
Видео: 5100 kb/s, 1280x528
Аудио: Russian / English: DTS, 1510 kb/s (6 ch)
Субтитры: Russian

MI
Общее
Уникальный идентификатор : 206660404542099851071111121175581908722 (0x9B79589CCE86A8578E9307E2C3315EF2)
Полное имя : D:\Закачки\Очень опасная штучка.mkv
Формат : Matroska
Размер файла : 5,18 Гбайт
Продолжительность : 1 ч. 31 м.
Общий поток : 8121 Кбит/сек
Дата кодирования : UTC 2012-02-29 04:33:50
Программа кодирования : mkvmerge v5.3.0 ('I could have danced') built on Feb 9 2012 10:38:07
Библиотека кодирования : libebml v1.2.3 + libmatroska v1.3.0

Видео
Идентификатор : 1
Формат : AVC
Формат/Информация : Advanced Video Codec
Профиль формата : High@L4.1
Параметр CABAC формата : Да
Параметр ReFrames формата : 6 кадров
Идентификатор кодека : V_MPEG4/ISO/AVC
Продолжительность : 1 ч. 31 м.
Битрейт : 5100 Кбит/сек
Ширина : 1280 пикс.
Высота : 528 пикс.
Соотношение сторон : 2,40:1
Частота кадров : 23,976 кадр/сек
Цветовое пространство : YUV
Подвыборка цветности : 4:2:0
Битовая глубина : 8 бит
Тип развёртки : Прогрессивная
Бит/(Пиксели*Кадры) : 0.315
Размер потока : 3,15 Гбайт (61%)
Библиотека кодирования : x264 core 120 r2164 da19765
Настройки программы : cabac=1 / ref=6 / deblock=1:-3:-3 / analyse=0x3:0x133 / me=umh / subme=10 / psy=1 / psy_rd=1.00:0.00 / mixed_ref=1 / me_range=32 / chroma_me=1 / trellis=2 / 8x8dct=1 / cqm=0 / deadzone=21,11 / fast_pskip=1 / chroma_qp_offset=-2 / threads=6 / sliced_threads=0 / nr=0 / decimate=1 / interlaced=0 / bluray_compat=0 / constrained_intra=0 / bframes=3 / b_pyramid=2 / b_adapt=2 / b_bias=0 / direct=2 / weightb=0 / open_gop=0 / weightp=2 / keyint=240 / keyint_min=23 / scenecut=40 / intra_refresh=0 / rc_lookahead=40 / rc=2pass / mbtree=1 / bitrate=5100 / ratetol=1.0 / qcomp=0.60 / qpmin=10 / qpmax=51 / qpstep=4 / cplxblur=20.0 / qblur=0.5 / ip_ratio=1.40 / aq=1:1.00 / zones=122241,131346,q=40
Язык : English

Аудио #1
Идентификатор : 2
Формат : DTS
Формат/Информация : Digital Theater Systems
Идентификатор кодека : A_DTS
Продолжительность : 1 ч. 31 м.
Вид битрейта : Постоянный
Битрейт : 1510 Кбит/сек
Каналы : 6 каналов
Расположение каналов : Front: L C R, Side: L R, LFE
Частота : 48,0 КГц
Битовая глубина : 16 бит
Метод сжатия : С потерями
Размер потока : 986 Мбайт (19%)
Язык : Russian

Аудио #2
Идентификатор : 3
Формат : DTS
Формат/Информация : Digital Theater Systems
Идентификатор кодека : A_DTS
Продолжительность : 1 ч. 31 м.
Вид битрейта : Постоянный
Битрейт : 1510 Кбит/сек
Каналы : 6 каналов
Расположение каналов : Front: L C R, Side: L R, LFE
Частота : 48,0 КГц
Битовая глубина : 16 бит
Метод сжатия : С потерями
Размер потока : 986 Мбайт (19%)
Язык : English

Текст
Идентификатор : 4
Формат : UTF-8
Идентификатор кодека : S_TEXT/UTF8
Идентификатор кодека/Информация : UTF-8 Plain Text
Язык : Russian

Свернуть
Скриншоты
ИзображениеИзображениеИзображениеИзображение
Свернуть
Не в сети
Профиль  
Начать новую темуОтветить на тему  [ 1 сообщение ] 
Вы не можете начинать темы
Вы не можете отвечать на сообщения
Вы не можете редактировать свои сообщения
Вы не можете удалять свои сообщения