Правила форума

  • В этом разделе создание новых тем Запрещено.
  • Для создания новых тем пользуйтесь Корневым разделом DVD и HD фильмы.
Начать новую темуОтветить на тему  [ Сообщений: 3 ] 
Торрент файл
Размер: 5.26 GB • Зарегистрирован: 5 лет 2 месяца • Статус: Проверено
Скачан: 321 раз • Желающих скачать: 0 • Поблагодарили: 45 раз
 Раздают: 0  |  0 KB/s  ]   Качают: 0  |  0 KB/s  ] 
 Полного источника не было 2 месяца 
Сообщения
 Добавлено: 2011-09-28 06:12
Top-releaser
Аватара пользователя
Стаж: 8 лет 7 месяцев
Сообщений: 1286
Спасибок: 3420
Лайков: 7
Очень плохая училка / Bad Teacher
«Ей всё по X+Y=?»

Изображение
Год выпуска: 2011
Страна: США
Жанр: комедия
Продолжительность: 01:37:37
Перевод: Профессиональный (полное дублирование)
Примечание: UNRATED-версия не выходила в дубляже. Отсутствует 6 минут перевода!
Режиссер: Джейк Кэздан
Сценарий: Джин Ступницки, Ли Эйзенберг
Продюсер: Джимми Миллер, Кэри Дитрих, Джорджия Касандес, Мелвин Мар
Оператор: Алар Кивило
Композитор: Майкл Эндрюс

В ролях: Кэмерон Диаз, Джастин Тимберлэйк, Джейсон Сигел, Люси Панч, Филлис Смит, Джон Майкл Хиггинс, Дэйв Аллен, Джиллиан Арменанте, Мэттью Дж. Эванс, Кейтлин Девер, Кэтрин Ньютон, Игал Беняир
Дублёры: Татьяна Шитова, Илья Бледный, Пётр Иващенко, Мария Овчинникова, Игорь Тарадайкин, Ефим Клиновский, Томас Шлеккер, Лиза Мартиросова, Иван Жарков, Ольга Кузнецова
Описание: Учительница средних классов живет гламурной жизнью светской львицы, ходит на работу как на вечеринку и мечтает об увеличении объема собственного бюста. Однако после внезапного разрыва с богатым бойфрендом ее образ жизни резко меняется, хотя сама она это осознает не сразу. Но когда в их школу приходит новый преподаватель, она совершенно теряет голову и начинает охоту за деньгами.

Раздача: Изображение

Изображение


Бюджет: $20 000 000
Сборы в мире: $209 885 143
Сборы в США: $99 685 143
Сборы в России: $13 477 806
Мировая премьера: 17 июня 2011
Изображение Релиз на DVD: 9 августа 2011, «Columbia/Sony»
Изображение Релиз на Blu-ray: 25 октября 2011, «Columbia/Sony»
MPAA: Изображение
Качество: BDRip
Формат: Matroska
Видео: AVC; 1280x694 (16:9); 5669 Kbps; 23,976 fps; 0,266 bpp
Аудио №1: Russian; AC3; 384 Kbps; CBR; 6 ch
Аудио №2: DTS; 1509 Kbps; CBR; 6 ch; 24 bit

MediaInfo
Общее
Уникальный идентификатор : 189765295514037213807532223377259975842 (0x8EC3776CC79F9E04967519923B1954A2)
Полное имя : E:\Видео\Ochen.plohaja.uchilka.2011.x264.BDRip.720p.mkv
Формат : Matroska
Версия формата : Version 2
Размер файла : 5,26 Гбайт
Продолжительность : 1 ч. 37 м.
Общий поток : 7717 Кбит/сек
Дата кодирования : UTC 2011-09-26 20:37:52
Программа кодирования : mkvmerge v4.9.1 ('Ich will') сборка от Jul 11 2011 23:53:15
Библиотека кодирования : libebml v1.2.1 + libmatroska v1.1.1

Видео
Идентификатор : 1
Формат : AVC
Формат/Информация : Advanced Video Codec
Профиль формата : High@L4.1
Параметр CABAC формата : Да
Параметр ReFrames формата : 9 кадров
Идентификатор кодека : V_MPEG4/ISO/AVC
Продолжительность : 1 ч. 37 м.
Битрейт : 5822 Кбит/сек
Ширина : 1280 пикс.
Высота : 694 пикс.
Соотношение сторон : 16:9
Частота кадров : 23,976 кадр/сек
Цветовое пространство : YUV
Подвыборка цветности : 4:2:0
Битовая глубина : 8 бит
Тип развёртки : Прогрессивная
Бит/(Пиксели*Кадры) : 0.273
Размер потока : 3,87 Гбайт (73%)
Библиотека кодирования : x264 core 102 r1666 d058f37
Настройки программы : cabac=1 / ref=9 / deblock=1:-3:-3 / analyse=0x3:0x113 / me=umh / subme=10 / psy=1 / psy_rd=1.05:0.10 / mixed_ref=1 / me_range=32 / chroma_me=1 / trellis=2 / 8x8dct=1 / cqm=2 / deadzone=21,11 / fast_pskip=0 / chroma_qp_offset=-2 / threads=6 / sliced_threads=0 / nr=0 / decimate=1 / interlaced=0 / constrained_intra=0 / bframes=6 / b_pyramid=2 / b_adapt=2 / b_bias=0 / direct=3 / weightb=1 / open_gop=0 / weightp=2 / keyint=250 / keyint_min=25 / scenecut=40 / intra_refresh=0 / rc_lookahead=40 / rc=2pass / mbtree=1 / bitrate=5822 / ratetol=1.0 / qcomp=0.60 / qpmin=10 / qpmax=51 / qpstep=4 / cplxblur=20.0 / qblur=0.5 / vbv_maxrate=50000 / vbv_bufsize=50000 / ip_ratio=1.40 / aq=1:0.80 / nal_hrd=none
Язык : English

Аудио #1
Идентификатор : 2
Формат : AC-3
Формат/Информация : Audio Coding 3
Расширение режима : CM (complete main)
Идентификатор кодека : A_AC3
Продолжительность : 1 ч. 37 м.
Вид битрейта : Постоянный
Битрейт : 384 Кбит/сек
Каналы : 6 каналов
Расположение каналов : Front: L C R, Side: L R, LFE
Частота : 48,0 КГц
Битовая глубина : 16 бит
Метод сжатия : С потерями
Размер потока : 268 Мбайт (5%)
Язык : Russian

Аудио #2
Идентификатор : 3
Формат : DTS
Формат/Информация : Digital Theater Systems
Идентификатор кодека : A_DTS
Продолжительность : 1 ч. 37 м.
Вид битрейта : Постоянный
Битрейт : 1510 Кбит/сек
Каналы : 6 каналов
Расположение каналов : Front: L C R, Side: L R, LFE
Частота : 48,0 КГц
Битовая глубина : 24 бит
Метод сжатия : С потерями
Размер потока : 1,03 Гбайт (20%)
Язык : English

Свернуть

Знаете ли Вы, что...
  • На роль Скотта Делакорта рассматривался Брэдли Купер.
  • Один из фильмов, который Элизабет показывает ученикам - «Опасные умы» 1995 года, где Мишель Пфайффер играет учителя. В этот же момент играет главная тема из того фильма - Coolio «Gangsta's Paradise».
Свернуть
Скриншоты
Изображение
Изображение
Изображение
Изображение
Изображение
Изображение
Изображение
Изображение
Изображение
Изображение
Изображение
Изображение
Изображение
Изображение

Свернуть

Изображение
Не в сети
Профиль  
 Добавлено: 2011-09-28 21:59 (спустя 15 часов)
Аватара пользователя
Стаж: 7 лет 11 месяцев
Сообщений: 786
Спасибок: 25
Лайков: 9
кагже они про дубляж забыли :men:
Не в сети
Профиль  
 Добавлено: 2013-07-11 17:56 (спустя 1 год 9 месяцев)
Top-seeder
Аватара пользователя
Стаж: 9 лет 1 месяц
Возраст: 27
Сообщений: 1170
Спасибок: 1626
Лайков: 15
Гоблина ждать не стОит, я так понимаю?


Тема поднималась пользователем Shamman 2013-07-11 17:56.
Не в сети
Профиль  
Начать новую темуОтветить на тему  [ Сообщений: 3 ] 
Вы не можете начинать темы
Вы не можете отвечать на сообщения
Вы не можете редактировать свои сообщения
Вы не можете удалять свои сообщения