Правила форума

  • В этом разделе создание новых тем Запрещено.
  • Для создания новых тем пользуйтесь Корневым разделом DVD и HD фильмы.
Начать новую темуОтветить на тему  [ Сообщений: 2 ] 
Торрент файл
Размер: 13.09 GB • Зарегистрирован: 5 месяцев 2 дня • Статус: Проверено
Скачан: 219 раз • Желающих скачать: 0 • Поблагодарили: 34 раза
 Раздают: 8  |  7 KB/s  ]   Качают: 0  |  0 KB/s  ] 
Сообщения
 Добавлено: 2016-10-27 00:41
DVD Release Group
Аватара пользователя
Стаж: 7 лет 5 месяцев
Сообщений: 3723
Спасибок: 257366
Лайков: 1059
Очень плохие мамочки

Bad Moms


Изображение


Год выпуска: 2016
Страна: США
Жанр: Комедия
Продолжительность: 01:40:57
Перевод: Профессиональный (полное дублирование)
Субтитры: Английские
Режиссер: Джон Лукас, Скотт Мур
В ролях: Мила Кунис, Кэтрин Хан, Кристен Белл, Кристина Эпплгейт, Джада Пинкетт Смит, Энни Мумоло, Уна Лоуренс, Эмджей Энтони
Описание: Идеальная мать, прекрасная жена, хорошая домохозяйка с успешной карьерой… Но стоит немного расслабиться, как тебе сразу напоминают о твоих обязанностях. Почему только мужчины имеют право развлекаться? Сколько же можно это терпеть?! Пора команде отчаянных мамочек пуститься во все тяжкие.
Изображение
Качество: BDRip 1080p
Формат: MKV
Видео кодек: H.264
Аудио кодек: AC3, DTS
Видео: 1920x800 23.98fps 16700kbps
Аудио:
Аудио Rus: AC3 48kHz 6ch 384Kbps
Аудио Eng: DTS 48kHz 6ch 1510Kbps
"MediaInfo"
Формат : Matroska
Версия формата : Version 4 / Version 2
Размер файла : 13,1 Гбайт
Продолжительность : 1 ч. 40 м.
Общий поток : 18,6 Мбит/сек
Название фильма : Bad.Moms.2016.1080p.BluRay.DTS.x264-HDMaNiAcS
Дата кодирования : UTC 2016-10-27 00:47:31
Программа кодирования : mkvmerge v9.4.0 ('Knurl') 64bit
Библиотека кодирования : libebml v1.3.4 + libmatroska v1.4.5

Видео
Идентификатор : 1
Формат : AVC
Формат/Информация : Advanced Video Codec
Профиль формата : High@L4.1
Параметр CABAC формата : Да
Параметр ReFrames формата : 5 кадров
Идентификатор кодека : V_MPEG4/ISO/AVC
Продолжительность : 1 ч. 40 м.
Битрейт : 16,3 Мбит/сек
Ширина : 1920 пикселей
Высота : 800 пикселей
Соотношение сторон : 2,40:1
Режим частоты кадров : Постоянный
Частота кадров : 23,976 кадра/сек
Цветовое пространство : YUV
Субдискретизация насыщенности : 4:2:0
Битовая глубина : 8 бит
Тип развёртки : Прогрессивная
Бит/(Пиксели*Кадры) : 0.443
Размер потока : 11,5 Гбайт (88%)
Библиотека кодирования : x264 core 146 r2538 121396c
Настройки программы : cabac=1 / ref=5 / deblock=1:-3:-3 / analyse=0x3:0x133 / me=tesa / subme=11 / psy=1 / psy_rd=1.04:0.00 / mixed_ref=1 / me_range=32 / chroma_me=1 / trellis=2 / 8x8dct=1 / cqm=0 / deadzone=21,11 / fast_pskip=0 / chroma_qp_offset=-2 / threads=60 / lookahead_threads=6 / sliced_threads=0 / nr=0 / decimate=0 / interlaced=0 / bluray_compat=0 / constrained_intra=0 / bframes=10 / b_pyramid=2 / b_adapt=2 / b_bias=0 / direct=3 / weightb=1 / open_gop=0 / weightp=2 / keyint=240 / keyint_min=23 / scenecut=40 / intra_refresh=0 / rc_lookahead=150 / rc=crf / mbtree=0 / crf=16.4 / qcomp=0.60 / qpmin=0 / qpmax=69 / qpstep=4 / vbv_maxrate=62500 / vbv_bufsize=78125 / crf_max=0.0 / nal_hrd=none / filler=0 / ip_ratio=1.40 / pb_ratio=1.30 / aq=1:0.80 / zones=138332,145222,b=0.2
Default : Да
Forced : Нет
Коэффициенты матрицы : BT.709

Аудио #1
Идентификатор : 2
Формат : AC-3
Формат/Информация : Audio Coding 3
Расширение режима : CM (complete main)
Параметр Endianness формата : Big
Идентификатор кодека : A_AC3
Продолжительность : 1 ч. 40 м.
Вид битрейта : Постоянный
Битрейт : 384 Кбит/сек
Каналы : 6 каналов
Расположение каналов : Front: L C R, Side: L R, LFE
Частота : 48,0 КГц
Битовая глубина : 16 бит
Метод сжатия : С потерями
Размер потока : 277 Мбайт (2%)
Заголовок : Dub | iTunes
Язык : Russian
Default : Да
Forced : Нет

Аудио #2
Идентификатор : 3
Формат : DTS
Формат/Информация : Digital Theater Systems
Режим : 16
Параметр Endianness формата : Big
Идентификатор кодека : A_DTS
Продолжительность : 1 ч. 40 м.
Вид битрейта : Постоянный
Битрейт : 1509 Кбит/сек
Каналы : 6 каналов
Расположение каналов : Front: L C R, Side: L R, LFE
Частота : 48,0 КГц
Битовая глубина : 24 бит
Метод сжатия : С потерями
Размер потока : 1,06 Гбайт (8%)
Заголовок : Original
Язык : English
Default : Нет
Forced : Нет

Текст #1
Идентификатор : 4
Формат : UTF-8
Идентификатор кодека : S_TEXT/UTF8
Идентификатор кодека/Информация : UTF-8 Plain Text
Заголовок : Full
Язык : English
Default : Да
Forced : Нет

Текст #2
Идентификатор : 5
Формат : UTF-8
Идентификатор кодека : S_TEXT/UTF8
Идентификатор кодека/Информация : UTF-8 Plain Text
Заголовок : SDH
Язык : English
Default : Нет
Forced : Нет

Меню
00:00:00.000 : en:Chapter 1
00:04:58.548 : en:Chapter 2
00:09:17.056 : en:Chapter 3
00:16:04.839 : en:Chapter 4
00:21:45.221 : en:Chapter 5
00:26:46.271 : en:Chapter 6
00:29:36.149 : en:Chapter 7
00:35:35.508 : en:Chapter 8
00:39:20.900 : en:Chapter 9
00:44:41.012 : en:Chapter 10
00:48:33.202 : en:Chapter 11
00:53:43.178 : en:Chapter 12
00:59:08.503 : en:Chapter 13
01:04:24.110 : en:Chapter 14
01:08:55.882 : en:Chapter 15
01:14:03.856 : en:Chapter 16
01:18:57.358 : en:Chapter 17
01:23:48.982 : en:Chapter 18
01:26:58.713 : en:Chapter 19
01:32:59.073 : en:Chapter 20
Свернуть

"Скриншоты"
Изображение
Изображение
Изображение
Свернуть
В сети
Профиль  
 Добавлено: 2017-01-11 09:48 (спустя 2 месяца 15 дней)
Стаж: 7 лет 9 месяцев
Сообщений: 52
Прикольный фильмец!!!!
Не в сети
Профиль  
Начать новую темуОтветить на тему  [ Сообщений: 2 ] 
Вы не можете начинать темы
Вы не можете отвечать на сообщения
Вы не можете редактировать свои сообщения
Вы не можете удалять свои сообщения