Правила форума

  • В этом разделе создание новых тем Запрещено.
  • Для создания новых тем пользуйтесь Корневым разделом DVD и HD фильмы.
Начать новую темуОтветить на тему  [ Сообщений: 3 ] 
Торрент файл
Размер: 8.28 GB • Зарегистрирован: 2 года 7 месяцев • Статус: Проверено
Скачан: 55 раз • Желающих скачать: 0 • Поблагодарили: 17 раз
 Раздают: 0  |  0 KB/s  ]   Качают: 0  |  0 KB/s  ] 
 Полного источника не было 11 часов 
Сообщения
 Добавлено: 2014-05-05 20:00
Руководитель релиз-группы
Аватара пользователя
Стаж: 7 лет 2 месяца
Возраст: 4
Сообщений: 5213
Спасибок: 19350
Лайков: 2312
Очень плохие парни / Big Bad Wolves

Изображение


Год выпуска: 2013
Страна: Израиль
Жанр: Триллер, криминал
Продолжительность: 01:49:43
Перевод: Профессиональный (многоголосый)

Режиссёр: Аарон Кешалес, Навот Папушадо
В ролях: Лиор Ашкенази, Ротем Кейнан, Цахи Град, Довале Гликман, Менаш Ной, Двир Бенедек, Каис Насеф, Нати Клюгер, Ами Вайнберг, Гай Адлер
Описание: В результате серии жестоких убийств детей пересеклись судьбы троих мужчин, которые в противном случае вряд ли когда-нибудь встретились бы друг с другом. Первый из них – Гидеон, отец последней жертвы, жаждущий мести, второй – полицейский Микки, жестоко пресекающий преступления и порой действующий вне рамок закона, а третий... собственно, третьим является главный подозреваемый по имени Дрор.


Качество: BDRip 1080p [Лицензия]
Формат: MKV
Видео кодек: MPEG-4 AVC
Аудио кодек: AC3 (Dolby Digital)
Видео: MPEG-4 AVC, 8847 Кбит/с, 1920x808
Аудио #1: Русский (AC3, 6 ch, 448 Кбит/с), иврит (DTS, 6 ch, 1510 Кбит/с)
MI
Общее
Уникальный идентификатор : 240305359783259207898489226438214728118 (0xB4C920FA5E8C0DA6A74C4227EBACB9B6)
Полное имя : C:\Фильмы\Big.Bad.Wolves.2013.Blu.Ray.1080p.CINEMANIA.mkv
Формат : Matroska
Версия формата : Version 4 / Version 2
Размер файла : 8,28 Гбайт
Продолжительность : 1 ч. 49 м.
Общий поток : 10,8 Мбит/сек
Название фильма : Release Group CINEMANIA
Дата кодирования : UTC 2014-05-05 16:19:28
Программа кодирования : mkvmerge v6.9.1 ('Blue Panther') 64bit built on Apr 18 2014 18:23:38
Библиотека кодирования : libebml v1.3.0 + libmatroska v1.4.1

Видео
Идентификатор : 1
Формат : AVC
Формат/Информация : Advanced Video Codec
Профиль формата : High@L4.1
Параметр CABAC формата : Да
Параметр ReFrames формата : 5 кадров
Идентификатор кодека : V_MPEG4/ISO/AVC
Продолжительность : 1 ч. 49 м.
Битрейт : 8847 Кбит/сек
Ширина : 1920 пикселей
Высота : 808 пикселей
Соотношение сторон : 2,40:1
Режим частоты кадров : Постоянный
Частота кадров : 23,976 кадра/сек
Цветовое пространство : YUV
Субдискретизация насыщенности : 4:2:0
Битовая глубина : 8 бит
Тип развёртки : Прогрессивная
Бит/(Пиксели*Кадры) : 0.238
Размер потока : 6,62 Гбайт (80%)
Заголовок : Release Group CINEMANIA
Библиотека кодирования : x264 core 142 r2409 d6b4e63
Настройки программы : cabac=1 / ref=5 / deblock=1:0:0 / analyse=0x3:0x133 / me=umh / subme=7 / psy=1 / psy_rd=1.00:0.00 / mixed_ref=1 / me_range=16 / chroma_me=1 / trellis=1 / 8x8dct=1 / cqm=0 / deadzone=21,11 / fast_pskip=0 / chroma_qp_offset=-2 / threads=12 / lookahead_threads=2 / sliced_threads=0 / nr=0 / decimate=1 / interlaced=0 / bluray_compat=0 / constrained_intra=0 / bframes=3 / b_pyramid=2 / b_adapt=2 / b_bias=0 / direct=3 / weightb=1 / open_gop=0 / weightp=2 / keyint=240 / keyint_min=23 / scenecut=40 / intra_refresh=0 / rc_lookahead=50 / rc=2pass / mbtree=1 / bitrate=8847 / ratetol=1.0 / qcomp=0.60 / qpmin=0 / qpmax=69 / qpstep=4 / cplxblur=20.0 / qblur=0.5 / ip_ratio=1.40 / aq=1:1.00
Язык : English
Default : Да
Forced : Нет

Аудио #1
Идентификатор : 2
Формат : AC-3
Формат/Информация : Audio Coding 3
Расширение режима : CM (complete main)
Параметр Endianness формата : Big
Идентификатор кодека : A_AC3
Продолжительность : 1 ч. 49 м.
Вид битрейта : Постоянный
Битрейт : 448 Кбит/сек
Каналы : 6 каналов
Расположение каналов : Front: L C R, Side: L R, LFE
Частота : 48,0 КГц
Битовая глубина : 16 бит
Метод сжатия : С потерями
Размер потока : 352 Мбайт (4%)
Заголовок : Лицензия
Язык : Russian
Default : Да
Forced : Да

Аудио #2
Идентификатор : 3
Формат : DTS
Формат/Информация : Digital Theater Systems
Режим : 16
Параметр Endianness формата : Big
Идентификатор кодека : A_DTS
Продолжительность : 1 ч. 49 м.
Вид битрейта : Постоянный
Битрейт : 1509 Кбит/сек
Каналы : 6 каналов
Расположение каналов : Front: L C R, Side: L R, LFE
Частота : 48,0 КГц
Битовая глубина : 24 бит
Метод сжатия : С потерями
Размер потока : 1,16 Гбайт (14%)
Язык : Hebrew
Default : Нет
Forced : Нет

Текст
Идентификатор : 4
Формат : UTF-8
Идентификатор кодека : S_TEXT/UTF8
Идентификатор кодека/Информация : UTF-8 Plain Text
Язык : English
Default : Нет
Forced : Нет

Меню
00:00:00.000 : en:00:00:00.000
00:07:02.464 : en:00:07:02.464
00:15:34.016 : en:00:15:34.016
00:23:52.056 : en:00:23:52.056
00:32:09.886 : en:00:32:09.886
00:42:29.464 : en:00:42:29.464
00:51:50.232 : en:00:51:50.232
01:01:32.272 : en:01:01:32.272
01:08:44.829 : en:01:08:44.829
01:20:57.644 : en:01:20:57.644
01:33:44.035 : en:01:33:44.035
01:45:31.158 : en:01:45:31.158
Свернуть
Скриншоты
Изображение
Изображение
Изображение
Изображение
Свернуть
 di-ys1 и rotametr нравится это.
В сети
Профиль  
 Добавлено: 2014-06-01 18:32 (спустя 26 дней)
Стаж: 7 лет 1 месяц
Сообщений: 5
Хорошая и правдивая постановка.Замысловатый сюжет. Очень не плохо.
Не в сети
Профиль  
 Добавлено: 2014-06-13 16:18 (спустя 11 дней)
Стаж: 8 лет 5 месяцев
Сообщений: 6
Нам с женой не понравился.Типичный фильм про маньяков
Не в сети
Профиль  
Начать новую темуОтветить на тему  [ Сообщений: 3 ] 
Вы не можете начинать темы
Вы не можете отвечать на сообщения
Вы не можете редактировать свои сообщения
Вы не можете удалять свои сообщения
cron