Правила форума

  • В этом разделе создание новых тем Запрещено.
  • Для создания новых тем пользуйтесь Корневым разделом DVD и HD фильмы.
Начать новую темуОтветить на тему  [ Сообщений: 6 ] 
Торрент файл
Размер: 7.04 GB • Зарегистрирован: 3 года 4 месяца • Статус: Проверено
Скачан: 393 раза • Желающих скачать: 0 • Поблагодарили: 92 раза
 Раздают: 1  |  0 KB/s  ]   Качают: 0  |  0 KB/s  ] 
Сообщения
 Добавлено: 2013-07-17 15:12
Аватара пользователя
Стаж: 9 лет 1 месяц
Сообщений: 8095
Спасибок: 122340
Лайков: 1196
Очень страшное кино 5 / Scary Movie 5

«Зло поднимается. Готовьте контрацептивы»

Изображение


Год выпуска: 2013
Страна: Изображение США
Жанр: комедия
Продолжительность: 01:25:46
Перевод: Профессиональный (полное дублирование) [Лицензия]


Режиссер: Малкольм Д. Ли
Сценарий: Дэвид Цукер, Пэт Профт
Продюсер: Фил Дорнфелд, Дэвид Цукер, Брайан Белл
Оператор: Стивен Дуглас Смит
Композитор: Джеймс Л. Винейбл

В ролях: Линдси Лохан, Эшли Тисдэйл, Чарли Шин, Терри Крюс, Кейт Уолш, Джерри О`Коннелл, Молли Шеннон, Хэзер Локлир, Саймон Рекс, Крис Эллиотт

Описание: Молодая супружеская пара Дэн и Джоди начинают замечать некоторые странные активности, когда они приносят двух осиротевших племянниц домой из больницы. Но когда нарастают проблемы и хаос в работе Джоди и карьере Дэна, они понимают, что их семью преследуют гнусные демоны. Вместе с советом сертифицированных специалистов и при помощи многочисленных камер, они должны выяснить, как избавиться от этих существ, пока не стало слишком поздно.

Изображение Изображение

Релиз группы: Изображение Раздача группы: Изображение

Качество: BDRip (1080p)
Формат: Matroska
Видео: MPEG-4 AVC, 9800 Кбит/с, 1920x1080, 24.000 кадр/с
Аудио №1: Русский (AC3, 48,0 КГц, 6 ch, 448 Кбит/c)
Аудио №2: Русский (DTS, 48,0 КГц, 6 ch, 1510 Кбит/c)

MediaInfo
Общее
Уникальный идентификатор : 188601528827475803364351623548605536755 (0x8DE3554C1C4CF14191E7D1E5AA5B99F3)
Полное имя : C:\Фильмы\Ochenj.strashnoe.kino-5.2013.BDRip.(1080p).R.G.Daredevil.mkv
Формат : Matroska
Версия формата : Version 2
Размер файла : 7,04 Гбайт
Продолжительность : 1 ч. 25 м.
Общий поток : 11,8 Мбит/сек
Название фильма : -=MediaClub-kaspr=-
Дата кодирования : UTC 2013-07-17 08:59:51
Программа кодирования : mkvmerge v5.7.0 ('The Whirlwind') built on Aug 7 2012 14:11:40
Библиотека кодирования : libebml v1.2.3 + libmatroska v1.3.0

Видео
Идентификатор : 1
Формат : AVC
Формат/Информация : Advanced Video Codec
Профиль формата : High@L4.1
Параметр CABAC формата : Да
Параметр ReFrames формата : 4 кадра
Идентификатор кодека : V_MPEG4/ISO/AVC
Продолжительность : 1 ч. 25 м.
Битрейт : 9800 Кбит/сек
Ширина : 1920 пикселей
Высота : 1080 пикселей
Соотношение сторон : 16:9
Режим частоты кадров : Постоянный
Частота кадров : 24,000 кадра/сек
Цветовое пространство : YUV
Субдискретизация насыщенности : 4:2:0
Битовая глубина : 8 бит
Тип развёртки : Прогрессивная
Бит/(Пиксели*Кадры) : 0.197
Размер потока : 5,73 Гбайт (81%)
Заголовок : -=MediaClub-kaspr=-
Библиотека кодирования : x264 core 133 r2334 a3ac64b
Настройки программы : cabac=1 / ref=4 / deblock=1:-3:-3 / analyse=0x3:0x133 / me=umh / subme=11 / psy=1 / psy_rd=1.00:0.20 / mixed_ref=1 / me_range=32 / chroma_me=1 / trellis=2 / 8x8dct=1 / cqm=0 / deadzone=21,11 / fast_pskip=0 / chroma_qp_offset=-3 / threads=12 / lookahead_threads=2 / sliced_threads=0 / nr=0 / decimate=0 / interlaced=0 / bluray_compat=0 / constrained_intra=0 / bframes=8 / b_pyramid=2 / b_adapt=2 / b_bias=0 / direct=3 / weightb=1 / open_gop=0 / weightp=2 / keyint=240 / keyint_min=22 / scenecut=40 / intra_refresh=0 / rc=2pass / mbtree=0 / bitrate=9800 / ratetol=1.0 / qcomp=0.60 / qpmin=0 / qpmax=69 / qpstep=4 / cplxblur=20.0 / qblur=0.5 / ip_ratio=1.40 / pb_ratio=1.30 / aq=1:1.00
Default : Да
Forced : Да

Аудио #1
Идентификатор : 2
Формат : AC-3
Формат/Информация : Audio Coding 3
Расширение режима : CM (complete main)
Параметр Endianness формата : Big
Идентификатор кодека : A_AC3
Продолжительность : 1 ч. 25 м.
Вид битрейта : Постоянный
Битрейт : 448 Кбит/сек
Каналы : 6 каналов
Расположение каналов : Front: L C R, Side: L R, LFE
Частота : 48,0 КГц
Битовая глубина : 16 бит
Метод сжатия : С потерями
Размер потока : 275 Мбайт (4%)
Заголовок : AC3
Язык : Russian
Default : Да
Forced : Да

Аудио #2
Идентификатор : 3
Формат : DTS
Формат/Информация : Digital Theater Systems
Режим : 16
Параметр Endianness формата : Big
Идентификатор кодека : A_DTS
Продолжительность : 1 ч. 25 м.
Вид битрейта : Постоянный
Битрейт : 1509 Кбит/сек
Каналы : 6 каналов
Расположение каналов : Front: L C R, Side: L R, LFE
Частота : 48,0 КГц
Битовая глубина : 16 бит
Метод сжатия : С потерями
Размер потока : 926 Мбайт (13%)
Заголовок : DTS
Язык : Russian
Default : Нет
Forced : Нет

Меню
00:00:00.000 : en:Chapter 01
00:08:37.791 : en:Chapter 02
00:15:04.666 : en:Chapter 03
00:22:25.500 : en:Chapter 04
00:29:11.833 : en:Chapter 05
00:36:24.750 : en:Chapter 06
00:44:36.916 : en:Chapter 07
00:49:13.583 : en:Chapter 08
00:54:01.250 : en:Chapter 09
01:01:04.666 : en:Chapter 10
01:06:51.916 : en:Chapter 11
01:10:54.541 : en:Chapter 12
Свернуть
Знаете ли вы, что...
Дэвид Цукер и Крис Дёрфи — заядлые фанаты «Грин Бэй Пэкерз». Они оба снялись в эпизодических ролях в сцене пародии на ленту «Черный лебедь» (2010) ближе к концу фильма одетыми как фанаты этого футбольного клуба.

У фильма не было предварительного показа для кинокритиков.

Анна Фэрис не стала сниматься в фильме в связи с беременностью. Другим актерам из предыдущих фильмов серии (Реджина Холл, Кевин Харт, Энтони Андерсон) предлагали роли в этом фильме, но они отказались.

Основные съемки проходили с 4 сентября по 25 октября 2012 года.

Эшли Тисдейл специально для своей роли в этом фильме брала уроки балета.

Это единственный фильм из всей франшизы, в котором не снимались главные герои из предыдущих частей Анна Фэрис и Реджина Холл.

Актер Крэйг Бирко первоначально планировался на роль Дэна, но позднее был заменен Саймоном Рексом по неизвестным причинам.

Это был самый длинный перерыв между фильмами франшизы — почти 7 лет.

Продюсер Дэвид Цукер занимался дополнительными съемками с января по февраль 2013 года. Актриса Эшли Тисдейл рассказала в интервью, что материал, который был снят в это время, составил около 60 % от конечной версии фильма. Режиссер Малкольм Д. Ли не имел никакого отношения к этим поправкам, поскольку на тот момент он уже занимался фильмом «Свидетель на свадьбе 2» (2013). По неизвестным причинам Ли даже не появился на премьере «Очень страшного кино 5» в Лос-Анджелесе.

Марлон Уайанс, который был основателем франшизы «Очень страшное кино» вместе со своими братьями Киненом Айвори Уайансом и Шоном Уайансом в 2000 году, рассказал в интервью, что студия пригласила их сняться в пятой части, но они отказались. Марлон Уайанс к тому же выпустил свою собственную пародию на фильмы ужасов «Дом с паранормальными явлениями» (2013). Кассовые сборы этого фильма оказались настолько хороши, что было решено снять продолжение «Дом с паранормальными явлениями 2» (2014).

Дэвид Цукер рассказал в интервью, что релиз фильма был задержан на три года, потому что студия пыталась убедить его вернуться на место режиссера. В итоге они пришли к соглашению, что Цукер вернется, но в качестве сценариста. Тогда на место режиссера взяли Малкольма Д. Ли. Ранее Ли занимался фильмом «Блюзмены» (2008) для той же студии. Прежде чем Цукер появился в проекте в качестве сценариста, первоначальную версию сценария написали Стивен Лефф, Джон Эбауд и Майкл Колтон. Цукер переписал его сначала вместе с Ли, а затем со своим давним коллегой Пэтом Профтом.

Первоначально фильм должен был спародировать «Крик 4» (2011), но студия отказалась от этой идеи, когда «Крик 4» (2011) оказался не так хорош в прокате, как ожидалось.

Медведь из фильма «Третий лишний» (2012) присутствует на постерах к фильму, но в самом фильме его нет.

Сцены пародии на фильм «Голодные игры» (2012) были удалены, но они будут в версии фильма на DVD и blu-ray.

В фильме есть пародия на картину «Зловещие мертвецы: Черная книга» (2013), хотя она вышла всего лишь за неделю до премьеры «Очень страшного кино 5». Продюсеры решили попросту сделать пародию на ее трейлер. Также в фильме есть кадры пародии на фильм «Пятьдесят оттенков серого», который даже не находился в стадии продакшна на момент выхода «Очень страшного кино 5».

Свернуть
Скриншоты
Изображение
Изображение
Изображение
Изображение
Свернуть
Не в сети
Профиль  
 Добавлено: 2013-07-17 19:54 (спустя 4 часа)
Аватара пользователя
Стаж: 8 лет
Сообщений: 1396
Спасибок: 39
Лайков: 64
жолото...жолото дайте :bra_vo:
Не в сети
Профиль  
 Добавлено: 2013-07-18 11:22 (спустя 15 часов)
Аватара пользователя
Стаж: 8 лет
Сообщений: 1396
Спасибок: 39
Лайков: 64
krazz
:co_ol:
Не в сети
Профиль  
 Добавлено: 2013-07-24 19:39 (спустя 6 дней)
Стаж: 3 года 5 месяцев
Сообщений: 5
Фильм такой тупой, но местами очень смешной.
Не в сети
Профиль  
 Добавлено: 2013-07-31 13:53 (спустя 6 дней)
Аватара пользователя
Стаж: 7 лет 2 месяца
Сообщений: 333
Спасибок: 989
Лайков: 9
Фильм - худшее, что я посмотрел за 2012-2013гг.
Не тратьте на него свое время.
Не в сети
Профиль  
 Добавлено: 2013-08-03 11:08 (спустя 2 дня 21 час)
Аватара пользователя
Стаж: 8 лет 11 месяцев
Возраст: 29
Сообщений: 5347
Спасибок: 311
Ох и гавнище, даже улыбнуться негде. Не смотреть.
_________________
Маленький Жып на drive2!
Мои игрушки
Intel Pentium D [915 3.0Ghz/GA-8I945PLGE-RH/3Gb Samsung DDR2 6400/Zotac 8800GT CoolVIVA/2Tb WD Green EARX/160Gb Seagate/80Gb WD/Pioneer DVR-108/17" HP1740] - Мой зверь!
Explay Informer 701 [7" 800x480 TFT/CPU 1Ghz BoxChip A10(Cortex A8)/GPU ARM Mali-400/512Mb DDR2/4Gb HDD/1.3Mpx/G-Sensor/3000mah/Wi-Fi b/g/n/Android 4.0.3 Ice Cream Sandwich]
Highscreen Jet Duo [3,2" 320x480 TFT/CPU 800Mhz/GPU Adreno 200/512Mb DDR3/512Mb HDD/2Mpx/G-Sensor/Wi-Fi b/g/Android 2.3]
PlayStation3 160Gb [4.25FW/Resistance3/GoW3/KillZone3/Bulletstorm/InFamous2/Twisted Metall/GT5/Uncharted2/MS:Pacific Rift]
Изображение
Свернуть
PSN Gamer Ranking
Изображение
Свернуть
Не в сети
Профиль  
Начать новую темуОтветить на тему  [ Сообщений: 6 ] 
Вы не можете начинать темы
Вы не можете отвечать на сообщения
Вы не можете редактировать свои сообщения
Вы не можете удалять свои сообщения