Правила форума

  • В этом разделе создание новых тем Запрещено.
  • Для создания новых тем пользуйтесь Корневым разделом DVD и HD фильмы.
Начать новую темуОтветить на тему  [ Сообщений: 2 ] 
Торрент файл
Размер: 4.02 GB • Зарегистрирован: 3 года 4 месяца • Статус: Проверено
Скачан: 66 раз • Желающих скачать: 0 • Поблагодарили: 18 раз
 Раздают: 0  |  0 KB/s  ]   Качают: 0  |  0 KB/s  ] 
 Полного источника не было 1 год 5 месяцев 
Сообщения
 Добавлено: 2013-07-17 10:23
Модератор
Аватара пользователя
Стаж: 8 лет 1 месяц
Возраст: 20
Сообщений: 32130
Спасибок: 98562
Лайков: 80
Очень страшное кино 5 / Scary MoVie

«Зло поднимается. Готовьте контрацептивы»

Изображение


Год выпуска: 2013
Страна: США
Жанр: комедия
Продолжительность: 01:08:16
Перевод: Профессиональный (дубляж)

Режиссёр: Малкольм Д. Ли
В ролях: Эшли Тисдейл, Саймон Рекс, Эрика Эш, Катрина Боуден, Терри Крюс, Хэзер Локлир, Жан-Поль Мано, Мак Миллер, Джерри О’Коннелл, Молли Шеннон
Описание: Молодая супружеская пара Дэн и Джоди начинают замечать некоторые странные активности, когда они приносят двух осиротевших племянниц домой из больницы. Но когда нарастают проблемы и хаос в работе Джоди и карьере Дэна, они понимают, что их семью преследуют гнусные демоны. Вместе с советом сертифицированных специалистов и при помощи многочисленных камер, они должны выяснить, как избавиться от этих существ, пока не стало слишком поздно.


Качество видео: BDRip 720p

Видеокодек: MPEG-4 AVC/H.264
Битрейт видео: ~ 5200 Кбит/сек
Размер кадра: 1280 x 720 (1.778) at 24.000 fps : 0.235 Bits/Pixel
Аудиокодек: DTS 5.1
Битрейт аудио: 1509 Кбит/сек, 48,0 КГц, 24 Bit [Русский, Дубляж] Лицензия
Изображение
MediaInfo
Уникальный идентификатор                 : 227701015644948818149921417822665219222 (0xAB4D9ED524874D2587B0E0EE16209C96)
Полное имя                               : H:\Очень страшное кино 5  Scary Movie 5 (2013) BDRip [720p]\Ochen.strashnoe.kino.5.2013.D.BDRip.720p.NNTT.k236.mkv
Формат                                   : Matroska
Версия формата                           : Version 2
Размер файла                             : 4,02 Гбайт
Продолжительность                        : 1 ч. 25 м.
Общий поток                              : 6709 Кбит/сек
Название фильма                          : -=NNM-CLUB.RU=-
Дата кодирования                         : UTC 2013-07-16 22:24:21
Программа кодирования                    : mkvmerge v2.9.9 ('Tutu') built on Nov 25 2009 21:13:32
Библиотека кодирования                   : libebml v0.7.9 + libmatroska v0.8.1

Видео
Идентификатор                            : 1
Формат                                   : AVC
Формат/Информация                        : Advanced Video Codec
Профиль формата                          : High@L4.1
Параметр CABAC формата                   : Да
Параметр ReFrames формата                : 4 кадра
Идентификатор кодека                     : V_MPEG4/ISO/AVC
Продолжительность                        : 1 ч. 25 м.
Битрейт                                  : 5200 Кбит/сек
Ширина                                   : 1280 пикселей
Высота                                   : 720 пикселей
Соотношение сторон                       : 16:9
Режим частоты кадров                     : Постоянный
Частота кадров                           : 24,000 кадра/сек
Цветовое пространство                    : YUV
Субдискретизация насыщенности            : 4:2:0
Битовая глубина                          : 8 бит
Тип развёртки                            : Прогрессивная
Бит/(Пиксели*Кадры)                      : 0.235
Размер потока                            : 3,04 Гбайт (76%)
Заголовок                                : Ochen.strashnoe.kino.5.2013.D.BDRip.720p.NNM-CLUB
Библиотека кодирования                   : x264 core 125 r2200 999b753
Настройки программы                      : cabac=1 / ref=1 / deblock=1:0:0 / analyse=0x3:0x113 / me=hex / subme=2 / psy=1 / psy_rd=1.00:0.00 / mixed_ref=0 / me_range=16 / chroma_me=1 / trellis=0 / 8x8dct=1 / cqm=0 / deadzone=21,11 / fast_pskip=1 / chroma_qp_offset=0 / threads=12 / lookahead_threads=2 / sliced_threads=0 / nr=0 / decimate=1 / interlaced=0 / bluray_compat=0 / constrained_intra=0 / bframes=3 / b_pyramid=2 / b_adapt=1 / b_bias=0 / direct=1 / weightb=1 / open_gop=0 / weightp=1 / keyint=250 / keyint_min=23 / scenecut=40 / intra_refresh=0 / rc_lookahead=10 / rc=2pass / mbtree=1 / bitrate=5200 / ratetol=1.0 / qcomp=0.60 / qpmin=0 / qpmax=69 / qpstep=4 / cplxblur=20.0 / qblur=0.5 / ip_ratio=1.40 / aq=1:1.00
Язык                                     : English
Default                                  : Нет
Forced                                   : Нет

Аудио
Идентификатор                            : 2
Формат                                   : DTS
Формат/Информация                        : Digital Theater Systems
Режим                                    : 16
Параметр Endianness формата              : Big
Идентификатор кодека                     : A_DTS
Продолжительность                        : 1 ч. 25 м.
Вид битрейта                             : Постоянный
Битрейт                                  : 1509 Кбит/сек
Каналы                                   : 6 каналов
Расположение каналов                     : Front: L C R, Side: L R, LFE
Частота                                  : 48,0 КГц
Битовая глубина                          : 24 бит
Метод сжатия                             : С потерями
Задержка видео                           : 11 мс.
Размер потока                            : 926 Мбайт (22%)
Язык                                     : Russian
Default                                  : Нет
Forced                                   : Нет
Свернуть
Скриншоты
Изображение

Изображение

Изображение
Свернуть
Еще скриншоты
Изображение Изображение Изображение Изображение Изображение
Свернуть
Знаете ли Вы, что...
Марлон Уайанс, который был основателем франшизы «Очень страшное кино» вместе со своими братьями Киненом Айвори Уайансом и Шоном Уайансом в 2000 году, рассказал в интервью, что студия пригласила их сняться в пятой части, но они отказались. Марлон Уайанс к тому же выпустил свою собственную пародию на фильмы ужасов «Дом с паранормальными явлениями» (2013). Кассовые сборы этого фильма оказались настолько хороши, что было решено снять продолжение «Дом с паранормальными явлениями 2» (2014).
Продюсер Дэвид Цукер занимался дополнительными съемками с января по февраль 2013 года. Актриса Эшли Тисдейл рассказала в интервью, что материал, который был снят в это время, составил около 60 % от конечной версии фильма. Режиссер Малкольм Д. Ли не имел никакого отношения к этим поправкам, поскольку на тот момент он уже занимался фильмом «Свидетель на свадьбе 2» (2013). По неизвестным причинам Ли даже не появился на премьере «Очень страшного кино 5» в Лос-Анджелесе.
Это единственный фильм из всей франшизы, в котором не снимались главные герои из предыдущих частей Анна Фэрис и Реджина Холл.
Основные съемки проходили с 4 сентября по 25 октября 2012 года.
Анна Фэрис не стала сниматься в фильме в связи с беременностью. Другим актерам из предыдущих фильмов серии (Реджина Холл, Кевин Харт, Энтони Андерсон) предлагали роли в этом фильме, но они отказались.
Эшли Тисдейл специально для своей роли в этом фильме брала уроки балета.
Актер Крэйг Бирко первоначально планировался на роль Дэна, но позднее был заменен Саймоном Рексом по неизвестным причинам.
Это был самый длинный перерыв между фильмами франшизы — почти 7 лет.
У фильма не было предварительного показа для кинокритиков.
Дэвид Цукер и Крис Дёрфи — заядлые фанаты «Грин Бэй Пэкерз». Они оба снялись в эпизодических ролях в сцене пародии на ленту «Черный лебедь» (2010) ближе к концу фильма одетыми как фанаты этого футбольного клуба.
Дэвид Цукер рассказал в интервью, что релиз фильма был задержан на три года, потому что студия пыталась убедить его вернуться на место режиссера. В итоге они пришли к соглашению, что Цукер вернется, но в качестве сценариста. Тогда на место режиссера взяли Малкольма Д. Ли. Ранее Ли занимался фильмом «Блюзмены» (2008) для той же студии. Прежде чем Цукер появился в проекте в качестве сценариста, первоначальную версию сценария написали Стивен Лефф, Джон Эбауд и Майкл Колтон. Цукер переписал его сначала вместе с Ли, а затем со своим давним коллегой Пэтом Профтом.
Первоначально фильм должен был спародировать «Крик 4» (2011), но студия отказалась от этой идеи, когда «Крик 4» (2011) оказался не так хорош в прокате, как ожидалось.
Медведь из фильма «Третий лишний» (2012) присутствует на постерах к фильму, но в самом фильме его нет.
Сцены пародии на фильм «Голодные игры» (2012) были удалены, но они будут в версии фильма на DVD и blu-ray.
В фильме есть пародия на картину «Зловещие мертвецы: Черная книга» (2013), хотя она вышла всего лишь за неделю до премьеры «Очень страшного кино 5». Продюсеры решили попросту сделать пародию на ее трейлер. Также в фильме есть кадры пародии на фильм «Пятьдесят оттенков серого», который даже не находился в стадии продакшна на момент выхода «Очень страшного кино 5».
Свернуть
Не в сети
Профиль  
 Добавлено: 2013-07-19 23:58 (спустя 2 дня 13 часов)
Русские витязи
Аватара пользователя
Стаж: 6 лет 10 месяцев
Возраст: 30
Сообщений: 485
Лайков: 4
Очень страшное де..мо,а не фильм.Только первые две части можно посмотреть.
Не в сети
Профиль  
Начать новую темуОтветить на тему  [ Сообщений: 2 ] 
Вы не можете начинать темы
Вы не можете отвечать на сообщения
Вы не можете редактировать свои сообщения
Вы не можете удалять свои сообщения