Правила форума

  • В этом разделе создание новых тем Запрещено.
  • Для создания новых тем пользуйтесь Корневым разделом DVD и HD фильмы.
Начать новую темуОтветить на тему  [ Сообщений: 3 ] 
Торрент файл
Размер: 5.75 GB • Зарегистрирован: 2 года 11 месяцев • Статус: Проверено
Скачан: 26 раз • Желающих скачать: 0 • Поблагодарили: 5 раз
 Раздают: 0  |  0 KB/s  ]   Качают: 0  |  0 KB/s  ] 
 Полного источника не было 3 часа 
Сообщения
 Добавлено: 2013-12-11 19:30
Модератор релиз-группы
Аватара пользователя
Стаж: 7 лет 8 месяцев
Возраст: 29
Сообщений: 9789
Спасибок: 23730
Лайков: 103
Изображение

Очень страшное кино
Scary Movie


Год выпуска: 2000
Страна: США
Слоган: «Funny as hell»
Жанр: комедия
Продолжительность: 01:28:58
Перевод: Профессиональный (полное дублирование)
Авторский (Гранкин)
Авторский (Санаев Павел)

Режиссер: Кинен Айвори Уайанс
Сценарий: Шон Уайанс, Марлон Уайанс, Бадди Джонсон, Фил Боман, Джейсон Фридберг
Продюсер: Кинен Айвори Уайанс, Марлон Уайанс, Шон Уайанс, Эрик Л. Голд, Ли Р. Майес
Оператор: Фрэнсис Кенни
Композитор: Дэвид Китэй
В ролях: Анна Фэрис, Реджина Холл, Марлон Уайанс, Джон Абрахамс, Шеннон Элизабет, Кармен Электра, Дейв Шеридан, Фрэнк Б. Мур, Джакомо Бессато, Кайл Грэхэм, Лиэнн Сантос, Марк МакКончи
Бюджет: $19 000 000
Сборы в США: $157 019 771
Сборы в России: $1 035 000
Сборы в мире: $278 019 771
Мировая премьера: 7 июля 2000
Релиз на DVD: 18 июня 2001, «West Video»
Релиз на Blu-ray: 28 августа 2013, «Кармен Видео»
Описание: В каждом уважающем себя фильме ужасов есть телефон, который вот-вот зазвонит; жертва, которая вот-вот завопит; убийца, который вот-вот нанесет смертельный удар. И единственный способ остаться в живых - это твердо помнить, что надо всегда опережать убийцу на один шаг...
Когда сексуальная репортерша, вечно сующая свой нос, на пару с попадающим во всякие дурацкие истории охранником из супермаркета пытается остановить убийцу, задумавшего расправиться с самыми видными учениками средней школы Булемия-Фоллз, начинается такое... ну очень страшное кино.


Изображение User Rating: 7.049 (49 739)
Изображение User Rating: 6.10 (131 258)
MPAA: R - Лицам до 17 лет обязательно присутствие взрослого
Раздача группы: Изображение
Релиз группы: Изображение
Качество: BDRip, 1080p
Формат: MKV
Видео: AVC; 1920x816 (2.35:1); 7793 Kbps; 23,976 fps; 0,207 bit/pixel
Аудио №1: русский; AC3; 448 Kbps; CBR; 6 ch - Дублированный (МОСФИЛЬМ-мастер)
Аудио №2: русский; AC3; 192 Kbps; CBR; 2 ch - Авторский одноголосый (Гранкин)
Аудио №3: русский; AC3; 192 Kbps; CBR; 2 ch - Авторский одноголосый (Санаев)
Аудио №4: AC3; 448 Kbps; CBR; 6 ch

Субтитры №1: русские
Субтитры №2: английские

mediainfo
Общее
Уникальный идентификатор : 215570005868766293877262527029848522605 (0xA22D45DF7D79DFAF855665AF32C33F6D)
Полное имя : D:\TORRENT\Ochenj.strashnoe.kino.2000.BDRip.1080p.mkv
Формат : Matroska
Размер файла : 5,75 Гбайт
Продолжительность : 1 ч. 28 м.
Общий поток : 9258 Кбит/сек
Дата кодирования : UTC 2013-05-16 11:34:10
Программа кодирования : mkvmerge v6.1.0 ('Old Devil') built on Mar 2 2013 14:32:37
Библиотека кодирования : libebml v1.3.0 + libmatroska v1.4.0

Видео
Идентификатор : 1
Формат : AVC
Формат/Информация : Advanced Video Codec
Профиль формата : High@L4.1
Параметр CABAC формата : Да
Параметр ReFrames формата : 4 кадра
Идентификатор кодека : V_MPEG4/ISO/AVC
Продолжительность : 1 ч. 28 м.
Битрейт : 8066 Кбит/сек
Ширина : 1920 пикс.
Высота : 816 пикс.
Соотношение сторон : 2,35:1
Частота кадров : 23,976 кадр/сек
Цветовое пространство : YUV
Подвыборка цветности : 4:2:0
Битовая глубина : 8 бит
Тип развёртки : Прогрессивная
Бит/(Пиксели*Кадры) : 0.215
Размер потока : 4,84 Гбайт (84%)
Библиотека кодирования : x264 core 132 r2310 76a5c3a
Настройки программы : cabac=1 / ref=4 / deblock=1:-1:-1 / analyse=0x3:0x133 / me=umh / subme=10 / psy=1 / psy_rd=1.00:0.00 / mixed_ref=1 / me_range=32 / chroma_me=1 / trellis=2 / 8x8dct=1 / cqm=0 / deadzone=21,11 / fast_pskip=0 / chroma_qp_offset=-2 / threads=6 / lookahead_threads=1 / sliced_threads=0 / nr=0 / decimate=1 / interlaced=0 / bluray_compat=0 / constrained_intra=0 / bframes=6 / b_pyramid=2 / b_adapt=2 / b_bias=0 / direct=3 / weightb=1 / open_gop=0 / weightp=2 / keyint=240 / keyint_min=24 / scenecut=40 / intra_refresh=0 / rc=2pass / mbtree=0 / bitrate=8066 / ratetol=2.0 / qcomp=1.00 / qpmin=0 / qpmax=51 / qpstep=4 / cplxblur=20.0 / qblur=0.5 / ip_ratio=1.40 / pb_ratio=1.30 / aq=1:1.00
Язык : English
Основные цвета : BT.709-5, BT.1361, IEC 61966-2-4, SMPTE RP177
Характеристики трансфера : BT.709-5, BT.1361
Коэффициенты матрицы : BT.709-5, BT.1361, IEC 61966-2-4 709, SMPTE RP177

Аудио #1
Идентификатор : 2
Формат : AC-3
Формат/Информация : Audio Coding 3
Расширение режима : CM (complete main)
Идентификатор кодека : A_AC3
Продолжительность : 1 ч. 28 м.
Вид битрейта : Постоянный
Битрейт : 448 Кбит/сек
Каналы : 6 каналов
Расположение каналов : Front: L C R, Side: L R, LFE
Частота : 48,0 КГц
Битовая глубина : 16 бит
Метод сжатия : С потерями
Размер потока : 285 Мбайт (5%)
Заголовок : Дубляж
Язык : Russian

Аудио #2
Идентификатор : 3
Формат : AC-3
Формат/Информация : Audio Coding 3
Расширение режима : CM (complete main)
Идентификатор кодека : A_AC3
Продолжительность : 1 ч. 28 м.
Вид битрейта : Постоянный
Битрейт : 192 Кбит/сек
Каналы : 2 канала
Расположение каналов : Front: L R
Частота : 48,0 КГц
Битовая глубина : 16 бит
Метод сжатия : С потерями
Размер потока : 122 Мбайт (2%)
Заголовок : AVO - Е. Гранкин
Язык : Russian

Аудио #3
Идентификатор : 4
Формат : AC-3
Формат/Информация : Audio Coding 3
Расширение режима : CM (complete main)
Идентификатор кодека : A_AC3
Продолжительность : 1 ч. 28 м.
Вид битрейта : Постоянный
Битрейт : 192 Кбит/сек
Каналы : 2 канала
Расположение каналов : Front: L R
Частота : 48,0 КГц
Битовая глубина : 16 бит
Метод сжатия : С потерями
Размер потока : 122 Мбайт (2%)
Заголовок : AVO - П. Санаев
Язык : Russian

Аудио #4
Идентификатор : 5
Формат : AC-3
Формат/Информация : Audio Coding 3
Расширение режима : CM (complete main)
Идентификатор кодека : A_AC3
Продолжительность : 1 ч. 28 м.
Вид битрейта : Постоянный
Битрейт : 448 Кбит/сек
Каналы : 6 каналов
Расположение каналов : Front: L C R, Side: L R, LFE
Частота : 48,0 КГц
Битовая глубина : 16 бит
Метод сжатия : С потерями
Размер потока : 285 Мбайт (5%)
Язык : English

Текст #1
Идентификатор : 6
Формат : UTF-8
Идентификатор кодека : S_TEXT/UTF8
Идентификатор кодека/Информация : UTF-8 Plain Text
Язык : Russian

Текст #2
Идентификатор : 7
Формат : UTF-8
Идентификатор кодека : S_TEXT/UTF8
Идентификатор кодека/Информация : UTF-8 Plain Text
Язык : English


Свернуть
"Знаете ли Вы, что..."
  • Роль Дрю была предложена Дженни МакКарти, однако она предпочла сняться в «Крике 3», снимавшемся параллельно и вышедшем на экраны в том же 2000 году.
  • Роль Брэнды была предложена певице Алие, однако последняя отказалась. Вскоре после выхода картины на экраны певица погибла в катастрофе.
  • Название картины «Очень страшное кино» было рабочим вариантом названия «Крика». Обе картины увидели свет под эгидой Dimension Films.
  • Прототипом героини Анны Фэрис стала Нив Кемпбелл, сыгравшая во всех трех частях «Крика». Неудивительно, что имя главной героины картины звучит как Синди Кемпбелл.
  • Сюжетная линия к фильму стала своеобразной комбинацией двух сценариев, приобретенных студией Dimension Films еще в 1998 году. Их названия всецело отражают пародийный характер: «Прошлым летом я закричал, потому что Хэллоуин выпал на Пятницу 13-е» и «Крикни, если ты знаешь, что я сделал на прошлом Хэллоуине».
  • Название школы, в которой учатся главные герои фильма, звучит примерно так: «Средняя школа Трупов».
  • Любопытно, что все актеры, сыгравшие в фильме подростков, на самом деле старше 25, а кое-кто даже и 30.
  • Режиссер фильма Кинен Айвори Уайнс снялся в эпизодической роли раба, появляющегося в рекламном ролике ленты «Амистад 2».
  • В сцене, где Синди и Бобби готовятся заняться любовью, у окна появляется Джеймс Ван Дер Бик, и в этот момент звучит музыкальная тема из сериала «Бухта Доусона», где он снимался.
  • Если внимательно присмотреться, то можно заметить, что пиво которое пьют герои фильма называется «Killer» вместо «Miller».
  • еще 7 фактов
  • В начале фильма, когда компания сбивает мужчину, разбивается фара, но через несколько минут машина опять цела и невредима.
Свернуть
Скриншоты

Изображение
Изображение
Изображение
Изображение
Изображение
Изображение
Изображение
Изображение
Изображение
Свернуть
Не в сети
Профиль  
 Добавлено: 2013-12-16 18:23 (спустя 4 дня)
Стаж: 2 года 11 месяцев
Сообщений: 21
спасибо!
_________________
Быстрый , стабильный заработок , без начальных вложений , до 30 $ в день , попробуйте и убедитесь сами
http://vk.com/club63014972, здесь все подробно описано , начните зарабатывать уже сегодня.
если что-то непонятно , постучите в скайп rinat_flash , все объясню и покажу.
Не в сети
Профиль  
 Добавлено: 2013-12-26 00:02 (спустя 9 дней)
Кинокомментатор
Аватара пользователя
Стаж: 8 лет 1 месяц
Сообщений: 1325
Спасибок: 794
Лайков: 35
What´s up!!
Не в сети
Профиль  
Начать новую темуОтветить на тему  [ Сообщений: 3 ] 
Вы не можете начинать темы
Вы не можете отвечать на сообщения
Вы не можете редактировать свои сообщения
Вы не можете удалять свои сообщения