Правила форума

  • В этом разделе создание новых тем Запрещено.
  • Для создания новых тем пользуйтесь Корневым разделом DVD и HD фильмы.
Начать новую темуОтветить на тему  [ Сообщений: 3 ] 
Торрент файл
Размер: 6.3 GB • Зарегистрирован: 4 года 6 месяцев • Статус: Проверено
Скачан: 106 раз • Желающих скачать: 0 • Поблагодарили: 20 раз
 Раздают: 0  |  0 KB/s  ]   Качают: 0  |  0 KB/s  ] 
 Полного источника не было 2 года 6 месяцев 
Сообщения
 Добавлено: 2012-05-20 11:19
Книголюб
Аватара пользователя
Стаж: 7 лет 2 месяца
Сообщений: 2823
Спасибок: 48828
Лайков: 73
Одержимая
The Devil Inside

Изображение


Год выпуска: 2012
Страна: США
Слоган: «No soul is safe.»
Жанр: ужасы
Продолжительность: 01:15:31
Перевод: Профессиональный (дубляж)

Режиссёр: Уильям Брент Белл
В ролях: Фернанда Андраде, Саймон Куотерман, Ивэн Хельмут, Йонут Грама, Сюзен Краули, Бонни Морган, Брайан Джонсон, Престон Джеймс Хилльер, Д.Т. Карни, Мод Бонанни
Описание: В далеком 1989 году в службу 911 поступил звонок от Марии Росси, которая сообщила о том, что жестоко убила трех человек. 20 лет спустя, ее дочь Изабелла пытается выяснить, что же все-таки произошло с ее матерью.

Она отправляется в клинику для душевнобольных преступников в Италии, где находится ее мать, которую считают душевнобольной и одержимой дьяволом. Изабелла обращается за помощью к двум молодым священникам, которые собираются изгнать дьявола из ее матери с помощью нетрадиционной методики, но им придется столкнуться с неведомым доселе злом, ведь Мария одержима сразу четырьмя мощными демонами…
Рейтинг MPAA: Рейтинг R (Подростки до 17 лет допускаются на фильм только в сопровождении одного из родителей)
Мировая премьера: 5 января 2012
Премьера в России: 2 февраля 2012, «Централ Партнершип»
Бюджет: $1 000 000
Изображение 4.302 2 771

Качество: BDRip.1080p
Формат: MKV
Видео кодек: H.264
Аудио кодек: AC3 (Dolby Digital)
Видео: 1920x1080, 23.976 fps, 9779 Kbps 0.197Bits/Pixel
Аудио #1: Russian: AC3, 448 Kbps (6 ch)
Аудио #2: English: AC3, 640 Kbps (6 ch)
Субтитры: Английские
MediaInfo
General
Unique ID : 228216559047180335274172419499073902204 (0xABB0E915B3BED6F19054204BFB0E967C)
Complete name : K:\Torrent\The.Devil.Inside..mkv
Format : Matroska
Format version : Version 2
File size : 6.30 GiB
Duration : 1h 23mn
Overall bit rate : 10.8 Mbps
Encoded date : UTC 2012-05-19 07:52:02
Writing application : mkvmerge v5.4.0 ('Piper') built on Mar 10 2012 13:34:39
Writing library : libebml v1.2.3 + libmatroska v1.3.0

Video
ID : 1
Format : AVC
Format/Info : Advanced Video Codec
Format profile : High@L4.1
Format settings, CABAC : Yes
Format settings, ReFrames : 4 frames
Muxing mode : Header stripping
Codec ID : V_MPEG4/ISO/AVC
Duration : 1h 23mn
Bit rate : 9 779 Kbps
Width : 1 920 pixels
Height : 1 080 pixels
Display aspect ratio : 16:9
Frame rate : 23.976 fps
Color space : YUV
Chroma subsampling : 4:2:0
Bit depth : 8 bits
Scan type : Progressive
Bits/(Pixel*Frame) : 0.197
Stream size : 5.54 GiB (88%)
Title : The.Devil.Inside.2012.1080p
Writing library : x264 core 124 r2197 69a0443
Encoding settings : cabac=1 / ref=4 / deblock=1:0:0 / analyse=0x3:0x113 / me=umh / subme=8 / psy=1 / psy_rd=1.00:0.00 / mixed_ref=1 / me_range=16 / chroma_me=1 / trellis=1 / 8x8dct=1 / cqm=0 / deadzone=21,11 / fast_pskip=1 / chroma_qp_offset=-2 / threads=12 / sliced_threads=0 / nr=0 / decimate=1 / interlaced=0 / bluray_compat=0 / constrained_intra=0 / bframes=3 / b_pyramid=2 / b_adapt=2 / b_bias=0 / direct=3 / weightb=1 / open_gop=0 / weightp=2 / keyint=240 / keyint_min=24 / scenecut=40 / intra_refresh=0 / rc_lookahead=50 / rc=2pass / mbtree=1 / bitrate=9779 / ratetol=1.0 / qcomp=0.60 / qpmin=0 / qpmax=69 / qpstep=4 / cplxblur=20.0 / qblur=0.5 / ip_ratio=1.40 / aq=1:1.00
Language : English
Default : Yes
Forced : No

Audio #1
ID : 2
Format : AC-3
Format/Info : Audio Coding 3
Mode extension : CM (complete main)
Muxing mode : Header stripping
Codec ID : A_AC3
Duration : 1h 23mn
Bit rate mode : Constant
Bit rate : 448 Kbps
Channel(s) : 6 channels
Channel positions : Front: L C R, Side: L R, LFE
Sampling rate : 48.0 KHz
Bit depth : 16 bits
Compression mode : Lossy
Stream size : 267 MiB (4%)
Title : AC3
Language : Russian
Default : Yes
Forced : No

Audio #2
ID : 3
Format : AC-3
Format/Info : Audio Coding 3
Mode extension : CM (complete main)
Muxing mode : Header stripping
Codec ID : A_AC3
Duration : 1h 23mn
Bit rate mode : Constant
Bit rate : 640 Kbps
Channel(s) : 6 channels
Channel positions : Front: L C R, Side: L R, LFE
Sampling rate : 48.0 KHz
Bit depth : 16 bits
Compression mode : Lossy
Stream size : 381 MiB (6%)
Title : AC3
Language : English
Default : No
Forced : No

Text
ID : 4
Format : UTF-8
Codec ID : S_TEXT/UTF8
Codec ID/Info : UTF-8 Plain Text
Language : English
Default : No
Forced : No

Menu
00:00:00.000 : en:00:00:00.000
00:04:05.704 : en:00:04:05.704
00:08:43.690 : en:00:08:43.690
00:14:55.937 : en:00:14:55.937
00:18:07.712 : en:00:18:07.712
00:24:34.139 : en:00:24:34.139
00:32:52.345 : en:00:32:52.345
00:42:59.660 : en:00:42:59.660
00:45:51.082 : en:00:45:51.082
00:53:59.278 : en:00:53:59.278
00:57:50.342 : en:00:57:50.342
01:00:06.394 : en:01:00:06.394
01:03:04.239 : en:01:03:04.239
01:09:07.810 : en:01:09:07.810
01:15:35.948 : en:01:15:35.948


Свернуть

Скриншоты
Изображение
Изображение
Изображение
Изображение
Свернуть
Не в сети
Профиль  
 Добавлено: 2012-05-21 17:28 (спустя 1 день 6 часов)
Стаж: 6 лет 2 месяца
Сообщений: 15
Спасибо! Что-то новое.
Не в сети
Профиль  
 Добавлено: 2012-05-22 13:33 (спустя 20 часов)
Аватара пользователя
Стаж: 7 лет 8 месяцев
Сообщений: 38
Спасибок: 36
надо глянуть
Не в сети
Профиль  
Начать новую темуОтветить на тему  [ Сообщений: 3 ] 
Вы не можете начинать темы
Вы не можете отвечать на сообщения
Вы не можете редактировать свои сообщения
Вы не можете удалять свои сообщения