Правила форума

  • В этом разделе создание новых тем Запрещено.
  • Для создания новых тем пользуйтесь Корневым разделом DVD и HD фильмы.
Начать новую темуОтветить на тему  [ Сообщений: 4 ] 
Торрент файл
Размер: 4.32 GB • Зарегистрирован: 4 года 6 месяцев • Статус: Проверено
Скачан: 85 раз • Желающих скачать: 0 • Поблагодарили: 15 раз
 Раздают: 0  |  0 KB/s  ]   Качают: 0  |  0 KB/s  ] 
 Полного источника не было 3 года 1 месяц 
Сообщения
 Добавлено: 2012-05-27 14:28
Книголюб
Аватара пользователя
Стаж: 7 лет 2 месяца
Сообщений: 2823
Спасибок: 48829
Лайков: 73
Одержимая
The Devil Inside

Изображение


Год выпуска: 2012
Страна: США
Слоган: «No soul is safe.»
Жанр: ужасы
Продолжительность: 01:15:31
Перевод: Профессиональный (дубляж) + Профессиональный (дубляж)
Субтитры: Русские

Режиссёр: Уильям Брент Белл
В ролях: Фернанда Андраде, Саймон Куотерман, Ивэн Хельмут, Йонут Грама, Сюзен Краули, Бонни Морган, Брайан Джонсон, Престон Джеймс Хилльер, Д.Т. Карни, Мод Бонанни
Описание: В далеком 1989 году в службу 911 поступил звонок от Марии Росси, которая сообщила о том, что жестоко убила трех человек. 20 лет спустя, ее дочь Изабелла пытается выяснить, что же все-таки произошло с ее матерью.

Она отправляется в клинику для душевнобольных преступников в Италии, где находится ее мать, которую считают душевнобольной и одержимой дьяволом. Изабелла обращается за помощью к двум молодым священникам, которые собираются изгнать дьявола из ее матери с помощью нетрадиционной методики, но им придется столкнуться с неведомым доселе злом, ведь Мария одержима сразу четырьмя мощными демонами…
Рейтинг MPAA: Рейтинг R (Подростки до 17 лет допускаются на фильм только в сопровождении одного из родителей)
Мировая премьера: 5 января 2012
Премьера в России: 2 февраля 2012, «Централ Партнершип»
Бюджет: $1 000 000
Изображение

Качество: BDRip.720p
Формат: MKV
Видео кодек: H264
Аудио кодек: AC3 (Dolby Digital)
Видео: 1280x720 (1.77:1), 23.976 fps, 5500 kbps, 0.249 bit/pixel
Аудио #1: 48 kHz, AC3 Dolby Digital, 3/2 (L,C,R,l,r) + LFE ch, ~448 kbps RUS
Аудио #2: 48 kHz, DTS, 3/2 (L,C,R,l,r) + LFE ch, ~1509 kbps ENG
Субтитры: Русские
MediaInfo
General
Unique ID : 248508763186820141082726959387659215557 (0xBAF50BFE20652D999B7F572A63B822C5)
Complete name : K:\Oderzhimaya..mkv
Format : Matroska
Format version : Version 2
File size : 4.32 GiB
Duration : 1h 23mn
Overall bit rate : 7 439 Kbps
Encoded date : UTC 2012-05-20 14:50:19
Writing application : mkvmerge v4.9.1 ('Ich will') сборка от Jul 11 2011 23:53:15
Writing library : libebml v1.2.1 + libmatroska v1.1.1

Video
ID : 1
Format : AVC
Format/Info : Advanced Video Codec
Format profile : High@L4.1
Format settings, CABAC : Yes
Format settings, ReFrames : 9 frames
Codec ID : V_MPEG4/ISO/AVC
Duration : 1h 23mn
Bit rate : 5 500 Kbps
Width : 1 280 pixels
Height : 720 pixels
Display aspect ratio : 16:9
Frame rate : 23.976 fps
Color space : YUV
Chroma subsampling : 4:2:0
Bit depth : 8 bits
Scan type : Progressive
Bits/(Pixel*Frame) : 0.249
Stream size : 3.10 GiB (72%)
Title : Одержимая / The Devil Inside (2012) BDRip 720p | HQCLUB
Writing library : x264 core 120 r2164 da19765
Encoding settings : cabac=1 / ref=9 / deblock=1:-3:-3 / analyse=0x3:0x113 / me=umh / subme=11 / psy=1 / psy_rd=1.05:0.15 / mixed_ref=1 / me_range=32 / chroma_me=1 / trellis=2 / 8x8dct=1 / cqm=0 / deadzone=21,11 / fast_pskip=1 / chroma_qp_offset=-3 / threads=12 / sliced_threads=0 / nr=0 / decimate=1 / interlaced=0 / bluray_compat=0 / constrained_intra=0 / bframes=9 / b_pyramid=2 / b_adapt=2 / b_bias=0 / direct=1 / weightb=1 / open_gop=0 / weightp=2 / keyint=250 / keyint_min=25 / scenecut=40 / intra_refresh=0 / rc=2pass / mbtree=0 / bitrate=5500 / ratetol=1.0 / qcomp=0.60 / qpmin=10 / qpmax=51 / qpstep=4 / cplxblur=20.0 / qblur=0.5 / ip_ratio=1.40 / pb_ratio=1.30 / aq=1:0.90
Language : English
Default : Yes
Forced : No

Audio #1
ID : 2
Format : AC-3
Format/Info : Audio Coding 3
Mode extension : CM (complete main)
Codec ID : A_AC3
Duration : 1h 23mn
Bit rate mode : Constant
Bit rate : 448 Kbps
Channel(s) : 6 channels
Channel positions : Front: L C R, Side: L R, LFE
Sampling rate : 48.0 KHz
Bit depth : 16 bits
Compression mode : Lossy
Stream size : 267 MiB (6%)
Title : Дубляж (R5) AC3 5.1 @ 448 kbps
Language : Russian
Default : Yes
Forced : Yes

Audio #2
ID : 3
Format : DTS
Format/Info : Digital Theater Systems
Codec ID : A_DTS
Duration : 1h 23mn
Bit rate mode : Constant
Bit rate : 1 510 Kbps
Channel(s) : 6 channels
Channel positions : Front: L C R, Side: L R, LFE
Sampling rate : 48.0 KHz
Bit depth : 24 bits
Compression mode : Lossy
Stream size : 898 MiB (20%)
Title : Оригинал DTS 5.1 @ 1509 kbps
Language : English
Default : No
Forced : Yes

Text #1
ID : 4
Format : UTF-8
Codec ID : S_TEXT/UTF8
Codec ID/Info : UTF-8 Plain Text
Title : Full
Language : Russian
Default : Yes
Forced : Yes

Text #2
ID : 5
Format : UTF-8
Codec ID : S_TEXT/UTF8
Codec ID/Info : UTF-8 Plain Text
Title : SDH
Language : English
Default : No
Forced : Yes

Text #3
ID : 6
Format : UTF-8
Codec ID : S_TEXT/UTF8
Codec ID/Info : UTF-8 Plain Text
Title : Full
Language : English
Default : No
Forced : Yes

Text #4
ID : 7
Format : UTF-8
Codec ID : S_TEXT/UTF8
Codec ID/Info : UTF-8 Plain Text
Title : Full
Language : Ukrainian
Default : No
Forced : Yes

Menu
00:00:00.000 : en:00:00:00.000
00:04:05.704 : en:00:04:05.704
00:08:43.690 : en:00:08:43.690
00:14:55.937 : en:00:14:55.937
00:18:07.712 : en:00:18:07.712
00:24:34.139 : en:00:24:34.139
00:32:52.345 : en:00:32:52.345
00:42:59.660 : en:00:42:59.660
00:45:51.082 : en:00:45:51.082
00:53:59.278 : en:00:53:59.278
00:57:50.342 : en:00:57:50.342
01:00:06.394 : en:01:00:06.394
01:03:04.239 : en:01:03:04.239
01:09:07.810 : en:01:09:07.810
01:15:35.948 : en:01:15:35.948


Свернуть

Скриншоты
Изображение
Изображение
Изображение
Изображение
Свернуть
Не в сети
Профиль  
 Добавлено: 2012-05-27 22:25 (спустя 7 часов)
Аватара пользователя
Стаж: 4 года 7 месяцев
Сообщений: 15
Лайков: 1
Надо посмотреть ;) раз от продюсера "паранормальное явление"!
Не в сети
Профиль  
 Добавлено: 2012-05-29 22:10 (спустя 1 день 23 часа)
Аватара пользователя
Стаж: 4 года 7 месяцев
Сообщений: 15
Лайков: 1
Отличный фильм :ya_hoo_oo:
Не в сети
Профиль  
 Добавлено: 2012-05-30 08:02 (спустя 9 часов)
Аватара пользователя
Стаж: 6 лет 7 месяцев
Сообщений: 564
Спасибок: 1110
Лайков: 3
даа фильмец такой отличный получился!)
Не в сети
Профиль  
Начать новую темуОтветить на тему  [ Сообщений: 4 ] 
Вы не можете начинать темы
Вы не можете отвечать на сообщения
Вы не можете редактировать свои сообщения
Вы не можете удалять свои сообщения