Правила форума

  • В этом разделе создание новых тем Запрещено.
  • Для создания новых тем пользуйтесь Корневым разделом DVD и HD фильмы.
Начать новую темуОтветить на тему  [ Сообщений: 2 ] 
Торрент файл
Размер: 5.19 GB • Зарегистрирован: 4 года 4 месяца • Статус: Проверено
Скачан: 58 раз • Желающих скачать: 0 • Поблагодарили: 4 раза
 Раздают: 0  |  0 KB/s  ]   Качают: 0  |  0 KB/s  ] 
 Полного источника не было 2 года 10 месяцев 
Сообщения
 Добавлено: 2012-07-17 16:46
Top-seeder
Аватара пользователя
Стаж: 9 лет
Сообщений: 1399
Спасибок: 28651
Лайков: 8
Одержимая

The Devil Inside

«No soul is safe.»

Изображение


Страна: США
Жанр: ужасы
Год выпуска: 2012

Продолжительность: 01:23:10
Перевод: Профессиональный (полное дублирование)
Субтитры: русские (Полные), английские (Full), английские (Full, SDH)...Присутствует хардсаб (в сценах экзорцизма )
Оригинальная аудио дорожка: английский

Режиссер: Уильям Брент Белл / William Brent Bell
В ролях: Фернанда Андраде (Isabella Rossi), Саймон Куотерман (Father Ben Rawlings), Ивэн Хельмут (Father David Keane), Йонут Грама (Michael Schaefer), Сюзен Краули (Maria Rossi), Бонни Морган (Rosa), Брайан Джонсон (Lieutenant Dreyfus), Джефф Викторофф (играет самого себя), Памела Дэвис (играет саму себя), Джон Проски (Father Christopher Aimes), Клаудиу Истодор (Doctor Antonio Costa), Тома Данила (Marco)
Дублёры: Василиса Воронина (Isabella Rossi), Евгений Вальц (Father Ben Rawlings), Илья Исаев (Father David Keane), Иван Жарков (Michael Schaefer), Людмила Титова (Maria Rossi)

Описание: В далеком 1989 году в службу 911 поступил звонок от Марии Росси, которая сообщила о том, что жестоко убила трех человек. 20 лет спустя, ее дочь Изабелла пытается выяснить, что же все-таки произошло с ее матерью.
Она отправляется в клинику для душевнобольных преступников в Италии, где находится ее мать, которую считают душевнобольной и одержимой дьяволом. Изабелла обращается за помощью к двум молодым священникам, которые собираются изгнать дьявола из ее матери с помощью нетрадиционной методики, но им придется столкнуться с неведомым доселе злом, ведь Мария одержима сразу четырьмя мощными демонами…


Лицам до 17 лет обязательно присутствие взрослого.

Качество: BDRip/720p
Контейнер: MKV

Видео: AVC, 1280x720 (16:9), 7000 kbps, 23,976 fps, 0,317 bpp
Аудио №1: русский / AC3 / 5.1 / 48 kHz / 448 kbps / 16 bit || Профессиональный (полное дублирование), R5
Аудио №2: английский / DTS / 5.1 / 48 kHz / 1510 kbps / 24 bit
Навигация по главам: есть

MI
Общее
Уникальный идентификатор : 230914107942795552759514031850588791936 (0xADB870838559941ABED43F995F10E480)
Полное имя : D:\Закачки\Одержимая.mkv
Формат : Matroska
Размер файла : 5,19 Гбайт
Продолжительность : 1 ч. 23 м.
Общий поток : 8938 Кбит/сек
Название фильма : Одержимая__The Devil Inside [2012.BDRip.720p.Dub.Eng.Subs]-HQFans
Дата кодирования : UTC 2012-05-20 03:01:14
Программа кодирования : mkvmerge v5.5.0 ('Healer') built on Apr 6 2012 21:43:24
Библиотека кодирования : libebml v1.2.3 + libmatroska v1.3.0

Видео
Идентификатор : 1
Формат : AVC
Формат/Информация : Advanced Video Codec
Профиль формата : High@L4.1
Параметр CABAC формата : Да
Параметр ReFrames формата : 8 кадров
Идентификатор кодека : V_MPEG4/ISO/AVC
Продолжительность : 1 ч. 23 м.
Битрейт : 7000 Кбит/сек
Ширина : 1280 пикс.
Высота : 720 пикс.
Соотношение сторон : 16:9
Частота кадров : 23,976 кадр/сек
Цветовое пространство : YUV
Подвыборка цветности : 4:2:0
Битовая глубина : 8 бит
Тип развёртки : Прогрессивная
Бит/(Пиксели*Кадры) : 0.317
Размер потока : 3,95 Гбайт (76%)
Заголовок : Rip by IBodyB
Библиотека кодирования : x264 core 124 r2197 69a0443
Настройки программы : cabac=1 / ref=8 / deblock=1:-3:-3 / analyse=0x3:0x113 / me=umh / subme=11 / psy=1 / psy_rd=1.00:0.10 / mixed_ref=1 / me_range=48 / chroma_me=1 / trellis=2 / 8x8dct=1 / cqm=0 / deadzone=21,11 / fast_pskip=0 / chroma_qp_offset=-3 / threads=12 / sliced_threads=0 / nr=0 / decimate=0 / interlaced=0 / bluray_compat=0 / constrained_intra=0 / bframes=8 / b_pyramid=2 / b_adapt=2 / b_bias=0 / direct=3 / weightb=1 / open_gop=0 / weightp=2 / keyint=240 / keyint_min=22 / scenecut=40 / intra_refresh=0 / rc_lookahead=40 / rc=2pass / mbtree=0 / bitrate=7000 / ratetol=1.0 / qcomp=0.60 / qpmin=0 / qpmax=69 / qpstep=4 / cplxblur=20.0 / qblur=0.5 / vbv_maxrate=40000 / vbv_bufsize=30000 / nal_hrd=none / ip_ratio=1.40 / pb_ratio=1.30 / aq=1:1.00
Язык : English
Основные цвета : BT.709-5, BT.1361, IEC 61966-2-4, SMPTE RP177
Характеристики трансфера : BT.709-5, BT.1361
Коэффициенты матрицы : BT.709-5, BT.1361, IEC 61966-2-4 709, SMPTE RP177

Аудио #1
Идентификатор : 2
Формат : AC-3
Формат/Информация : Audio Coding 3
Расширение режима : CM (complete main)
Идентификатор кодека : A_AC3
Продолжительность : 1 ч. 23 м.
Вид битрейта : Постоянный
Битрейт : 448 Кбит/сек
Каналы : 6 каналов
Расположение каналов : Front: L C R, Side: L R, LFE
Частота : 48,0 КГц
Битовая глубина : 16 бит
Метод сжатия : С потерями
Размер потока : 267 Мбайт (5%)
Заголовок : Dub {R5} [AC3 5.1@448kbps/16-bit]
Язык : Russian

Аудио #2
Идентификатор : 3
Формат : DTS
Формат/Информация : Digital Theater Systems
Идентификатор кодека : A_DTS
Продолжительность : 1 ч. 23 м.
Вид битрейта : Постоянный
Битрейт : 1510 Кбит/сек
Каналы : 6 каналов
Расположение каналов : Front: L C R, Side: L R, LFE
Частота : 48,0 КГц
Битовая глубина : 24 бит
Метод сжатия : С потерями
Размер потока : 898 Мбайт (17%)
Заголовок : Original [DTS 5.1@1510kbps/24-bit]
Язык : English

Текст #1
Идентификатор : 4
Формат : UTF-8
Идентификатор кодека : S_TEXT/UTF8
Идентификатор кодека/Информация : UTF-8 Plain Text
Заголовок : Полные
Язык : Russian

Текст #2
Идентификатор : 5
Формат : UTF-8
Идентификатор кодека : S_TEXT/UTF8
Идентификатор кодека/Информация : UTF-8 Plain Text
Заголовок : Full
Язык : English

Текст #3
Идентификатор : 6
Формат : UTF-8
Идентификатор кодека : S_TEXT/UTF8
Идентификатор кодека/Информация : UTF-8 Plain Text
Заголовок : Full, SDH
Язык : English

Меню
00:00:00.000 : :Chapter 01
00:04:05.703 : :Chapter 02
00:08:43.689 : :Chapter 03
00:14:55.936 : :Chapter 04
00:18:07.711 : :Chapter 05
00:24:34.139 : :Chapter 06
00:32:52.345 : :Chapter 07
00:42:59.660 : :Chapter 08
00:45:51.081 : :Chapter 09
00:53:59.277 : :Chapter 10
00:57:50.341 : :Chapter 11
01:00:06.394 : :Chapter 12
01:03:04.238 : :Chapter 13
01:09:07.810 : :Chapter 14
01:15:35.948 : :Chapter 15
01:23:10.151 : :Chapter 16

Свернуть

Скриншоты
ИзображениеИзображениеИзображениеИзображение
Свернуть
Не в сети
Профиль  
 Добавлено: 2012-07-24 20:33 (спустя 7 дней)
Аватара пользователя
Стаж: 5 лет 7 месяцев
Сообщений: 21
:ps_ih:
Не в сети
Профиль  
Начать новую темуОтветить на тему  [ Сообщений: 2 ] 
Вы не можете начинать темы
Вы не можете отвечать на сообщения
Вы не можете редактировать свои сообщения
Вы не можете удалять свои сообщения