Правила форума

  • В этом разделе создание новых тем Запрещено.
  • Для создания новых тем пользуйтесь Корневым разделом DVD и HD фильмы.
Начать новую темуОтветить на тему  [ Сообщений: 2 ] 
Торрент файл
Размер: 7.92 GB • Зарегистрирован: 5 лет 7 месяцев • Статус: Проверено
Скачан: 33 раза • Желающих скачать: 0 • Поблагодарили: 9 раз
 Раздают: 0  |  0 KB/s  ]   Качают: 0  |  0 KB/s  ] 
 Полного источника не было 11 месяцев 
Сообщения
 Добавлено: 2011-04-25 21:04
Инквизитор
Аватара пользователя
Стаж: 8 лет 8 месяцев
Сообщений: 3753
Спасибок: 28360
Лайков: 9
Изображение

Одержимость / Obsessed


«All's fair when love is war.»

Год выпуска: 2009
Страна: США
Жанр: триллер, драма
Продолжительность: 01:48:22
Перевод: Профессиональный (многоголосый, закадровый)
Режиссер: Стив Шилл
Сценарий: Дэвид Локери
Продюсер: Уильям Пэкер, Джордж Флинн, Николас Штерн
Оператор: Кен Сенг
Композитор: Джеймс Майкл Дули
В ролях: Идрис Эльба, Бейонсе Ноулз, Эли Лартер, Джерри О`Коннелл, Бонни Перлман, Кристин Лахти, Натан Майерс, Николас Майерс, Мэттью Хэмпфри, Скаут Тэйлор-Комптон
Описание: Пока вы это скрываете - вы невиновны! Когда вы разоблачаете себя - вы виновны во всем! А истина лежит где-то посередине! Так стоит ли играть в игру, которая несет реальность под откос?
Преуспевающий финансовый менеджер - акула бизнеса и обладатель сногсшибательной жены-красотки - вдруг становится объектом непреодолимой страсти новой работницы фирмы. Баловню судьбы импонирует интригующий и бурный поворот событий, пока офисный флирт не превращается в террор, ставящий под угрозу всю его жизнь!
Возможно ли предугадать исход, если на смену реальности и фактам приходят фантазии, слепая страсть, ОДЕРЖИМОСТЬ?

Изображение
Бюджет: $20 000 000
Сборы в мире: $73 830 340
Изображение
MPAA:
Раздача группы: Изображение
Качество: BDRip
Формат: MKV
Видео: 1920x800, 23.976fps, 9167kbps
Аудио #1: Русский, 640kbps, 6ch, AC-3, 48kHz
Аудио #2: Английский, 640kbps, 6ch, AC-3, 48kHz

Субтитры: русские (только надписи), английские
M.I.
Общее
Уникальный идентификатор         : 214930826611101416781123333586936857291 (0xA1B22BE70B9B73838C2231829B5302CB)
Полное имя                       : K:\Фильмы\Obsessed.2009.BDRip.1080p.mkv
Формат                           : Matroska
Размер файла                     : 7,92 Гбайт
Продолжительность                : 1 ч. 48 м.
Общий поток                      : 10,5 Мбит/сек
Название фильма                  : Obsessed (2009) [Olympus HDFilms]
Дата кодирования                 : UTC 2009-08-08 13:44:54
Программа кодирования            : mkvmerge v2.9.7 ('Tenderness') built on Jul  1 2009 18:43:35
Библиотека кодирования           : libebml v0.7.7 + libmatroska v0.8.1

Видео
Идентификатор                    : 1
Формат                           : AVC
Формат/Информация                : Advanced Video Codec
Профиль формата                  : High@L4.1
Параметр CABAC формата           : Да
Параметр ReFrames формата        : 5 кадры
Идентификатор кодека             : V_MPEG4/ISO/AVC
Продолжительность                : 1 ч. 48 м.
Битрейт                          : 9167 Кбит/сек
Ширина                           : 1920 пикс.
Высота                           : 800 пикс.
Соотношение сторон               : 2,40:1
Частота кадров                   : 23,976 кадр/сек
Цветовое пространство            : YUV
Подвыборка цветности             : 4:2:0
Битовая глубина                  : 8 бит
Тип развёртки                    : Прогрессивная
Бит/(Пиксели*Кадры)              : 0.249
Размер потока                    : 6,79 Гбайт (86%)
Заголовок                        : 9167kbps x264 1080p
Библиотека кодирования           : x264 core 68 r1183M f21daff
Настройки программы              : cabac=1 / ref=5 / deblock=1:-3:-3 / analyse=0x3:0x133 / me=umh / subme=9 / psy_rd=1.0:0.0 / mixed_ref=1 / me_range=32 / chroma_me=1 / trellis=2 / 8x8dct=1 / cqm=0 / deadzone=21,11 / chroma_qp_offset=-2 / threads=6 / nr=0 / decimate=1 / mbaff=0 / bframes=3 / b_pyramid=1 / b_adapt=2 / b_bias=0 / direct=3 / wpredb=1 / keyint=250 / keyint_min=25 / scenecut=40 / rc=2pass / bitrate=9167 / ratetol=1.0 / qcomp=0.60 / qpmin=10 / qpmax=51 / qpstep=4 / cplxblur=20.0 / qblur=0.5 / vbv_maxrate=50000 / vbv_bufsize=50000 / ip_ratio=1.40 / pb_ratio=1.30 / aq=1:0.80
Язык                             : English

Аудио #1
Идентификатор                    : 2
Формат                           : AC-3
Формат/Информация                : Audio Coding 3
Расширение режима                : CM (complete main)
Идентификатор кодека             : A_AC3
Продолжительность                : 1 ч. 48 м.
Вид битрейта                     : Постоянный
Битрейт                          : 640 Кбит/сек
Канал(ы)                         : 6 канала(ов)
Расположение каналов             : Front: L C R, Side: L R, LFE
Частота                          : 48,0 КГц
Битовая глубина                  : 16 бит
Метод сжатия                     : С потерями
Размер потока                    : 496 Мбайт (6%)
Заголовок                        : 640kbps 6ch AC-3
Язык                             : Russian

Аудио #2
Идентификатор                    : 3
Формат                           : AC-3
Формат/Информация                : Audio Coding 3
Расширение режима                : CM (complete main)
Идентификатор кодека             : A_AC3
Продолжительность                : 1 ч. 48 м.
Вид битрейта                     : Постоянный
Битрейт                          : 640 Кбит/сек
Канал(ы)                         : 6 канала(ов)
Расположение каналов             : Front: L C R, Side: L R, LFE
Частота                          : 48,0 КГц
Битовая глубина                  : 16 бит
Метод сжатия                     : С потерями
Размер потока                    : 496 Мбайт (6%)
Заголовок                        : 640kbps 6ch AC-3
Язык                             : English

Текст #1
Идентификатор                    : 4
Формат                           : VobSub
Режим смешивания                 : zlib
Идентификатор кодека             : S_VOBSUB
Идентификатор кодека/Информация  : The same subtitle format used on DVDs
Заголовок                        : Forced
Язык                             : Russian

Текст #2
Идентификатор                    : 5
Формат                           : VobSub
Режим смешивания                 : zlib
Идентификатор кодека             : S_VOBSUB
Идентификатор кодека/Информация  : The same subtitle format used on DVDs
Язык                             : English
Свернуть
Скриншоты
Изображение
Изображение
Изображение
Свернуть


Последний раз редактировалось Биг 2013-10-11 20:12, всего редактировалось 1 раз.
Не в сети
Профиль  
 Добавлено: 2011-04-27 00:19 (спустя 1 день 3 часа)
Аватара пользователя
Стаж: 8 лет
Возраст: 23
Сообщений: 578
Спасибок: 10790
рейтинг на IMDB потрясает воображение...
_________________
Изображение
Не в сети
Профиль  
Начать новую темуОтветить на тему  [ Сообщений: 2 ] 
Вы не можете начинать темы
Вы не можете отвечать на сообщения
Вы не можете редактировать свои сообщения
Вы не можете удалять свои сообщения