Правила форума

  • В этом разделе создание новых тем Запрещено.
  • Для создания новых тем пользуйтесь Корневым разделом DVD и HD фильмы.
Начать новую темуОтветить на тему  [ Сообщений: 5 ] 
Торрент файл
Размер: 9.09 GB • Зарегистрирован: 5 лет 1 месяц • Статус: Проверено
Скачан: 142 раза • Желающих скачать: 0 • Поблагодарили: 22 раза
 Раздают: 0  |  0 KB/s  ]   Качают: 0  |  0 KB/s  ] 
 Полного источника не было 1 год 4 месяца 
Сообщения
 Добавлено: 2011-10-30 11:32
Top-releaser
Стаж: 7 лет 4 месяца
Возраст: 33
Сообщений: 409
Спасибок: 6402
Лайков: 6
Один день
One Day
«Не упусти свою любовь»

Изображение
Год выпуска: 2011
Страна: США
Жанр: драма, мелодрама
Продолжительность: 01:47:13
Перевод: Профессиональный (дублирование)

Режиссер: Лоне Шерфиг (Lone Scherfig)
Сценарий: Дэвид Николлс / David Nicholls
Продюсер: Нина Джейкобсон / Nina Jacobson, Рафаэль Бенолье / Raphaël Benoliel, Джейн Фрейзер / Jane Frazer, Тесса Росс / Tessa Ross
Оператор: Бенуа Деломм / Benoa#238;t Delhomme
Композитор: Рейчел Портмен / Rachel Portman

В ролях: Энн Хэтэуэй (Emma), Джим Стёрджесс (Dexter), Том Мисон (Callum), Джоди Уиттакер (Tilly), Тим Ки (Customer), Рейф Сполл (Ian), Жозефин Де Ла Буме (Marie), Патришия Кларксон (Alison), Кен Стотт (Steven), Хейда Рид (Ingrid), Аманда Фейрбэнк-Хайнс (Tara), Джил Альма (Waiter)
Дублёры: Дарья Семенова (Emma), Григорий Калинин (Dexter), Илья Барабанов (Callum), Сергей Епишев (Ian), Алина Ольшанская (Alison), Алексей Багдасаров (Steven), Юлия Волкова (Suki), Владимир Скворцов (Aaron), Александра Ребенок (Sylvie), Елена Папанова (Mrs. Cope)

Описание: Эмма - романтична, остра на язык и хочет изменить мир к лучшему. Декстер - плейбой, баловень судьбы и хочет, чтобы мир принадлежал ему. Впервые Эм и Декс встретились 15 июля на выпускном в колледже и провели вместе только один день. А потом пришла ночь, и они... решили остаться друзьями. Они будут встречаться в тот же день через год, через два. Но сколько лет должно пройти, чтобы они поверили в свою любовь и поняли, как много значил для них этот ОДИН ДЕНЬ?


Рейтинг
Kinopoisk.RU: 7.738 (8 994)
Imdb.com: 6.60 (4 601)
Mpaa: Изображение


Качество: BDRip 1080p
Формат: MKV
Видео: AVC; 1920x816 (2.35:1); 9751 Kbps; 24 fps; 0,259 bpp
Аудио №1: Rus; AC3; 640 Kbps; CBR; 6 ch; 16 bit
Аудио №2: Rus; DTS; 1509 Kbps; CBR; 6 ch; 16 bit

"Знаете ли Вы, что..."
  • После того как Энн Хэтэуэй прочитала один из первых вариантов сценария, ей так понравился персонаж Эммы, что она прилетела в Лондон, чтобы объяснить режиссеру Лоне Шерфиг, почему эта роль должна достаться ей.
  • На выбор даты 15 июля Дэвида Николса вдохновила песня Билли Брэгга «День святого Свитина», которую он впервые услышал еще в 80-х.
  • Впервые мы видим Эмму в отражении в зеркале. Она купила его в магазине уцененных товаров, и оно остается с ней на протяжении всего фильма.
Свернуть
Mediainfo
General
Unique ID : 207532865084437940335594009837750884640 (0x9C21603D049639999754194C90969920)
Complete name : D:\uTorrent\Odin.den.2011.BDRip.1080p.mkv
Format : Matroska
Format version : Version 2
File size : 9.09 GiB
Duration : 1h 47mn
Overall bit rate : 12.1 Mbps
Encoded date : UTC 2011-10-29 23:58:37
Writing application : mkvmerge v5.0.0 ('Die Wahre Liebe') built on Sep 25 2011 20:33:49
Writing library : libebml v1.2.2 + libmatroska v1.3.0
Video #1
ID : 1
Format : AVC
Format/Info : Advanced Video Codec
Format profile : High@L4.1
Format settings, CABAC : Yes
Format settings, ReFrames : 4 frames
Codec ID : V_MPEG4/ISO/AVC
Duration : 1h 47mn
Bit rate : 9 751 Kbps
Width : 1 920 pixels
Height : 816 pixels
Display aspect ratio : 2.35:1
Frame rate : 24.000 fps
Standard : PAL
Color space : YUV
Chroma subsampling : 4:2:0
Bit depth : 8 bits
Scan type : Progressive
Bits/(Pixel*Frame) : 0.259
Stream size : 7.30 GiB (80%)
Language : English
Color primaries : BT.709-5, BT.1361, IEC 61966-2-4, SMPTE RP177
Transfer characteristics : BT.709-5, BT.1361
Matrix coefficients : BT.709-5, BT.1361, IEC 61966-2-4 709, SMPTE RP177
Audio #2
ID : 2
Format : AC-3
Format/Info : Audio Coding 3
Mode extension : CM (complete main)
Codec ID : A_AC3
Duration : 1h 47mn
Bit rate mode : Constant
Bit rate : 640 Kbps
Channel(s) : 6 channels
Channel positions : Front: L C R, Side: L R, LFE
Sampling rate : 48.0 KHz
Bit depth : 16 bits
Compression mode : Lossy
Stream size : 491 MiB (5%)
Language : Russian
Audio #3
ID : 3
Format : DTS
Format/Info : Digital Theater Systems
Codec ID : A_DTS
Duration : 1h 47mn
Bit rate mode : Constant
Bit rate : 1 510 Kbps
Channel(s) : 6 channels
Channel positions : Front: L C R, Side: L R, LFE
Sampling rate : 48.0 KHz
Bit depth : 16 bits
Compression mode : Lossy
Stream size : 1.13 GiB (12%)
Language : Russian


Свернуть
Скриншоты
Изображение

Изображение

Изображение
Свернуть
Не в сети
Профиль  
 Добавлено: 2012-02-12 11:13 (спустя 3 месяца 12 дней)
Аватара пользователя
Стаж: 7 лет 6 месяцев
Возраст: 51
Сообщений: 1782
Лайков: 1395
Этот фильм смотреть не надо. В принципе, вообще. Он длинный, тягучий, не бессмысленный, но лучше бы был бессмысленным. Проблема в том, что он абсолютный клон фильма "Любовь и другие лекарства". Но если "Любви и другим..." можно поставить пятерку, то "Одному дню" - не больше двойки.

Фильму сняла пожилая женщина. При этом все реплики и эмоции она отдала главгероине - Энн Хэтэуэй. А для главгера, Джима Стерджеса, не потрудилась написать ни одной адекватной строчки. Поэтому он, неплохой актер в принципе, выглядит здесь безмозглым слизняком, живущим лишь за счет девушки, пашущей день и ночь, любящей его беззаветно и безответно 25 лет. Фильм лишен логики, и, если говорить честно, разума. Да, режиссер захотела показать какие мужики сволочи и мудаки. Но мы и так это знаем. Стоит ли тратить на это депрессивное действо кучу времени? По-моему, нет.

Я мог бы кинуть еще пару фактов, но не хочу спойлерить. Если вы женщина с розовыми бантиками, качайте это кино и смотрите - может, даже получите удовольствие и пустите тягучую слезу. Если вы мужик - делать в этой фильме нечего.

Вот так. Лучше смотрите "Любовь и другие лекарства". Там то же самое (такое впечатление, что Энн Хэтэуэй может играть в мелодрамах только одну роль), но там отличный Джейк Джилленхол, он своим драйвом может поставить на уши любое кино. А "Один день" - только для того, чтобы испортить настроение.
Не в сети
Профиль  
 Добавлено: 2012-02-12 13:31 (спустя 2 часа 18 минут)
Аватара пользователя
Стаж: 8 лет 7 месяцев
Сообщений: 1702
Спасибок: 104
Лайков: 152
Спасиб за такое описание, все сразу стало понятно, качать не стану, но автору раздачи все равно фэнкс, может пару-тройку десятков с розовыми бантиками скачают... :-)
Не в сети
Профиль  
 Добавлено: 2013-06-04 22:44 (спустя 1 год 3 месяца)
Стаж: 7 лет 6 месяцев
Сообщений: 5
Помогите с раздачей!!!
Не в сети
Профиль  
 Добавлено: 2015-01-25 20:37 (спустя 1 год 7 месяцев)
Стаж: 9 лет
Сообщений: 14
Спасибок: 18
Раздайте пожалуйста!
Не в сети
Профиль  
Начать новую темуОтветить на тему  [ Сообщений: 5 ] 
Вы не можете начинать темы
Вы не можете отвечать на сообщения
Вы не можете редактировать свои сообщения
Вы не можете удалять свои сообщения