Правила форума

  • В этом разделе создание новых тем Запрещено.
  • Для создания новых тем пользуйтесь Корневым разделом DVD и HD фильмы.
Начать новую темуОтветить на тему  [ 1 сообщение ] 
Торрент файл
Размер: 4.99 GB • Зарегистрирован: 4 года 4 месяца • Статус: Проверено
Скачан: 33 раза • Желающих скачать: 0 • Поблагодарили: 7 раз
 Раздают: 0  |  0 KB/s  ]   Качают: 0  |  0 KB/s  ] 
 Полного источника не было 3 года 2 месяца 
Сообщения
 Добавлено: 2012-07-13 19:42
Top-releaser
Аватара пользователя
Стаж: 6 лет 7 месяцев
Сообщений: 2078
Спасибок: 3230
Лайков: 9
Один дома 2: Затерянный в Нью-Йорке / Home Alone 2: Lost in New York
«First, he was home alone, now he's lost in New York»

Изображение


Год выпуска: 1992
Страна: США
Жанр: комедия, приключения, семейный, криминал
Продолжительность: 02:00:01
Перевод: Профессиональный (полное дублирование)

Режиссёр: Крис Коламбус
В ролях: Маколей Калкин, Джо Пеши, Дэниел Стерн, Кэтрин О’Хара, Джон Хёрд, Девин Рэтрей, Хиллари Вульф, Морин Элизабет Шэй, Майкл С. Маронна, Джерри Бэммен
Описание: Самый маленький герой Америки устраивает большой переполох в Нью Йорке! Кевин МакКалистер вернулся! Но теперь он один не дома, а в Нью Йорке и у него достаточно денег и кредитных карточек, чтобы превратить Большое Яблоко в собственную площадку для игр.
Но, как всегда, Кевину не суждено быть долго одному, его старые приятели жулики Гарри и Марв сбежали из тюрьмы, куда они попали стараниями Кевина. И надо же им было попасть именно в тот город, где Кевин планировал поразвлечься. Новые западни и ловушки уже ждут горе бандитов.

Раздача группы: Изображение

Качество: BDRip, 720p
Формат: MKV
Видео кодек: H.264
Аудио кодек: AC3 (Dolby Digital)
Видео: 1280x696, 23.976 fps, ~4796kbps
Аудио #1: Russian: 48 kHz, AC3, 3/2 (L,C,R,l,r) + LFE ch, ~384.00 kbps avg |Дубляж|
Аудио #2: Ukrainian: 48 kHz, AC3, 3/2 (L,C,R,l,r) + LFE ch, ~384.00 kbps avg |Многоголосый закадровый, Новый канал|
Аудио #3: English: 48 kHz, AC3, 3/2 (L,C,R,l,r) + LFE ch, ~384.00 kbps avg
Субтитры: Русские, Английские

Знаете ли вы, что...
  • В первой части картины Кевин смотрит фильм под названием «Ангелы с запятнанными душами». Во второй части Кевин смотрит сиквел под названием «Ангелы с отвратительно мерзкими душами».
  • Макалай Калкин получил гонорар в размере 8 миллионов долларов за участие в сиквеле. На тот момент это был самый ценный чек, выписанный на имя 12-летнего мальчика.
  • Магазин игрушек носит название «Игрушечная лавка Данкана». Это название магазин получил в честь исполнительного продюсера Данкана Хендерсона.
  • Эпизодическая роль досталась дочери режиссера фильма Криса Коламбуса. Элеанора Коламбус сыграла маленькую покупательницу в магазине игрушек.
  • Спустя несколько недель после выхода картины на экраны, компания Tiger Electronics выпустила настоящую версию игрушки Talkboy (компактный кассетник), которую Кевин активно использует в процессе фильма. Более того, на фоне успеха была выпущена и женская модель игрушки под названием Talkgirl. Надо ли говорить, что игрушка пользовалась бешеной популярностью.
  • Во время остановки в гостинице во Флориде семейство МакКалистеров дружно смотрит по телевизору фильм Роберто Росселини «Европа '51» с Ингрид Бергман в главной роли.
Свернуть
MediaInfo
Общее
Уникальный идентификатор : 254439876742787010838071590230943185764 (0xBF6B5677DDBF6B6D8C41ED679359BB64)
Полное имя : Z:\WWW\TR-Downloads\Home.Alone.2.Lost.In.New.York.720p[R.G.Daredevil].mkv
Формат : Matroska
Версия формата : Version 2
Размер файла : 4,99 Гбайт
Продолжительность : 2 ч. 0 м.
Общий поток : 5949 Кбит/сек
Дата кодирования : UTC 2009-12-10 07:06:06
Программа кодирования : mkvmerge v2.9.7 ('Tenderness') built on Jul 1 2009 18:43:35
Библиотека кодирования : libebml v0.7.7 + libmatroska v0.8.1

Видео
Идентификатор : 1
Формат : AVC
Формат/Информация : Advanced Video Codec
Профиль формата : High@L4.1
Параметр CABAC формата : Да
Параметр ReFrames формата : 8 кадров
Идентификатор кодека : V_MPEG4/ISO/AVC
Продолжительность : 2 ч. 0 м.
Битрейт : 4796 Кбит/сек
Ширина : 1280 пикселей
Высота : 696 пикселей
Соотношение сторон : 1,85:1
Частота кадров : 23,976 кадра/сек
Цветовое пространство : YUV
Субдискретизация насыщенности : 4:2:0
Битовая глубина : 8 бит
Тип развёртки : Прогрессивная
Бит/(Пиксели*Кадры) : 0.225
Размер потока : 3,92 Гбайт (79%)
Библиотека кодирования : x264 core 79 r1342 e8501ef
Настройки программы : cabac=1 / ref=8 / deblock=1:-2:-2 / analyse=0x3:0x113 / me=umh / subme=10 / psy=1 / psy_rd=0.9:0.2 / mixed_ref=1 / me_range=32 / chroma_me=1 / trellis=2 / 8x8dct=1 / cqm=0 / deadzone=21,11 / chroma_qp_offset=-3 / threads=6 / nr=0 / decimate=1 / mbaff=0 / constrained_intra=0 / bframes=6 / b_pyramid=2 / b_adapt=2 / b_bias=0 / direct=1 / wpredb=1 / wpredp=2 / keyint=250 / keyint_min=25 / scenecut=40 / rc_lookahead=0 / rc=2pass / mbtree=0 / bitrate=4796 / ratetol=1.0 / qcomp=0.60 / qpmin=10 / qpmax=51 / qpstep=4 / cplxblur=20.0 / qblur=0.5 / vbv_maxrate=50000 / vbv_bufsize=62500 / ip_ratio=1.40 / pb_ratio=1.30 / aq=1:1.00
Default : Да
Forced : Нет

Аудио #1
Идентификатор : 2
Формат : AC-3
Формат/Информация : Audio Coding 3
Расширение режима : CM (complete main)
Параметр Endianness формата : Big
Идентификатор кодека : A_AC3
Продолжительность : 2 ч. 0 м.
Вид битрейта : Постоянный
Битрейт : 384 Кбит/сек
Каналы : 6 каналов
Расположение каналов : Front: L C R, Side: L R, LFE
Частота : 48,0 КГц
Битовая глубина : 16 бит
Метод сжатия : С потерями
Размер потока : 330 Мбайт (6%)
Язык : Russian
Default : Да
Forced : Нет

Аудио #2
Идентификатор : 3
Формат : AC-3
Формат/Информация : Audio Coding 3
Расширение режима : CM (complete main)
Параметр Endianness формата : Big
Идентификатор кодека : A_AC3
Продолжительность : 2 ч. 0 м.
Вид битрейта : Постоянный
Битрейт : 384 Кбит/сек
Каналы : 6 каналов
Расположение каналов : Front: L C R, Side: L R, LFE
Частота : 48,0 КГц
Битовая глубина : 16 бит
Метод сжатия : С потерями
Размер потока : 330 Мбайт (6%)
Язык : Ukrainian
Default : Нет
Forced : Нет

Аудио #3
Идентификатор : 4
Формат : AC-3
Формат/Информация : Audio Coding 3
Расширение режима : CM (complete main)
Параметр Endianness формата : Big
Идентификатор кодека : A_AC3
Продолжительность : 2 ч. 0 м.
Вид битрейта : Постоянный
Битрейт : 384 Кбит/сек
Каналы : 6 каналов
Расположение каналов : Front: L C R, Side: L R, LFE
Частота : 48,0 КГц
Битовая глубина : 16 бит
Метод сжатия : С потерями
Размер потока : 330 Мбайт (6%)
Язык : English
Default : Нет
Forced : Нет

Текст #1
Идентификатор : 5
Формат : UTF-8
Идентификатор кодека : S_TEXT/UTF8
Идентификатор кодека/Информация : UTF-8 Plain Text
Язык : Russian
Default : Да
Forced : Нет

Текст #2
Идентификатор : 6
Формат : UTF-8
Идентификатор кодека : S_TEXT/UTF8
Идентификатор кодека/Информация : UTF-8 Plain Text
Язык : English
Default : Нет
Forced : Нет
Свернуть
Скриншоты
Изображение

Изображение

Изображение

Изображение

Изображение
Свернуть
Не в сети
Профиль  
Начать новую темуОтветить на тему  [ 1 сообщение ] 
Вы не можете начинать темы
Вы не можете отвечать на сообщения
Вы не можете редактировать свои сообщения
Вы не можете удалять свои сообщения