Правила форума

  • В этом разделе создание новых тем Запрещено.
  • Для создания новых тем пользуйтесь Корневым разделом DVD и HD фильмы.
Начать новую темуОтветить на тему  [ Сообщений: 2 ] 
Торрент файл
Размер: 7.35 GB • Зарегистрирован: 4 года 4 месяца • Статус: Проверено
Скачан: 85 раз • Желающих скачать: 0 • Поблагодарили: 27 раз
 Раздают: 0  |  0 KB/s  ]   Качают: 0  |  0 KB/s  ] 
 Полного источника не было 1 год 5 месяцев 
Сообщения
 Добавлено: 2012-07-13 20:21
Top-releaser
Аватара пользователя
Стаж: 6 лет 7 месяцев
Сообщений: 2078
Спасибок: 3230
Лайков: 9
Один Дома / Home Alone
«When Kevin's Family Left For Vacation, They Forgot One Minor Detail: Kevin. But Don't Worry...
He Cooks. He Cleans. He Kicks Some Butt.»

Изображение


Год выпуска: 1990
Страна: США
Жанр: комедия
Продолжительность: 01.42:54
Перевод: Профессиональный (полное дублирование)

Режиссёр: Крис Коламбyс
В ролях: Маколэй Калкин, Джо Пеши, Дэниэл Стерн, Джон Херд, Кэтрин О'Хара, Хиллэри Вулф, Энджела Гетлс, Лэрри Хэнкин, Робертс Блоссом, Девин Рэтрэй, Джери Бэмэн
Описание: Американское семейство отбыло в Европу, но в спешке забыли дома одного из детишек. Мальчик оказался весьма изобретательным. Когда в дом решили наведаться грабители, то юный американский партизан приготовил им столько сюрпризов в виде различных капканов и ловушек, что смеяться можно на протяжении всего фильма

Раздача группы: Изображение

Качество: BDRip, 720p
Формат: MKV
Видео кодек: H.264
Аудио кодек: AC3, DTS
Видео: 1280x688 at 23.976 fps, 2PASS x264@L4.1 ~5.985 Kbps avg
Аудио #1: Russian: 48 kHz, AC3, 3/2 (L,C,R,l,r) + LFE ch, ~384.00 kbps avg |Многоголосый закадровый|
Аудио #2: Russian: 48 kHz, AC3, 2/0 (L,R), ~192.00 kbps avg |Многоголосый закадровый, Family Fan Edition|
Аудио #3: Russian: 48 kHz, AC3, 2/0 (L,R), ~192.00 kbps avg |Многоголосый закадровый, ОРТ|
Аудио #4: Ukrainian: 48 kHz, AC3, 2/0 (L,R), ~192.00 kbps avg |Многоголосый закадровый, Новый канал|
Аудио #5: Russian: 48 kHz, DTS, 3/2 (L,C,R,l,r) + LFE ch, ~1536.00 kbps avg |Одноголосый закадровый, А.Михалев|
Аудио #6: Russian: 48 kHz, AC3, 2/0 (L,R), ~192.00 kbps avg |Одноголосый закадровый, В.Дохалов|
Аудио #7: English: 48 kHz, DTS 3/2 (L,C,R,l,r) + LFE ch, ~1536.00 kbps avg
Аудио #8: English: 48 kHz, OGG, 2/0 (L,R), ~64.00 kbps avg |Commentary by Director Chris Colombus and Macaulay Culkin|
Субтитры: Russian #1, Russian #2, Ukrainian (на непереведенные моменты), English

Знаете ли Вы, что...
  • Фильм, который Кевин просматривает на видеомагнитофоне, не существует в природе. Этот фрагмент был специально отснят для фильма. Он носит название «Ангелы с запятнанными душами».
  • Роль дяди Фрэнка была написана под Келси Грэммера.
  • Джеффри Вайсман, сыгравший роль не в меру любопытного соседа Мича Мерфи, проходил кастинг на получение роли Кевина.
  • Периодически Джо Пеши забывал, что они снимают семейное кино и выкрикивал нецензурную брань в виде слова «Fuck» и его производных. Тогда режиссер Крис Коламбус посоветовал ему произносить слово «Fridge».
  • Действие фильма происходит в Чикаго, хотя все сцены фильма (кроме тех, которые происходят во Франции) были сняты на окраине Нью-Йорка.
  • Кевин в разное время смотрит дома по телевизору мультфильм «Как Гринч украл Рождество» Чака Джонса и шоу Джонни Карсона.
Свернуть
MediaInfo
Общее
Уникальный идентификатор : 174999869618622771882901434210261191087 (0x83A7BFB8F9785CAEBBC5D4FE1368C9AF)
Полное имя : Z:\WWW\TR-Downloads\Home.Alone.720p[R.G.Daredevil].mkv
Формат : Matroska
Версия формата : Version 1
Размер файла : 7,35 Гбайт
Продолжительность : 1 ч. 42 м.
Режим общего битрейта : Переменный
Общий поток : 10,2 Мбит/сек
Название фильма : Home Alone (1990) - Release for HDCLUB
Дата кодирования : UTC 2009-01-10 12:23:35
Программа кодирования : mkvmerge v2.2.0 ('Turn It On Again') built on Mar 4 2008 12:58:26
Библиотека кодирования : libebml v0.7.7 + libmatroska v0.8.1

Видео
Идентификатор : 1
Формат : AVC
Формат/Информация : Advanced Video Codec
Профиль формата : High@L4.1
Параметр CABAC формата : Да
Параметр ReFrames формата : 8 кадров
Идентификатор кодека : V_MPEG4/ISO/AVC
Продолжительность : 1 ч. 42 м.
Битрейт : 5985 Кбит/сек
Ширина : 1280 пикселей
Высота : 688 пикселей
Соотношение сторон : 1,85:1
Частота кадров : 23,976 кадра/сек
Цветовое пространство : YUV
Субдискретизация насыщенности : 4:2:0
Битовая глубина : 8 бит
Тип развёртки : Прогрессивная
Бит/(Пиксели*Кадры) : 0.283
Размер потока : 4,16 Гбайт (57%)
Заголовок : Release for HDCLUB
Библиотека кодирования : x264 core 65 r1066M 045ae40
Настройки программы : cabac=1 / ref=8 / deblock=1:-3:-3 / analyse=0x3:0x133 / me=umh / subme=9 / psy_rd=1.0:0.0 / mixed_ref=1 / me_range=16 / chroma_me=1 / trellis=2 / 8x8dct=1 / cqm=0 / deadzone=21,11 / chroma_qp_offset=-2 / threads=3 / nr=0 / decimate=1 / mbaff=0 / bframes=5 / b_pyramid=1 / b_adapt=2 / b_bias=0 / direct=3 / wpredb=1 / keyint=250 / keyint_min=25 / scenecut=40(pre) / rc=2pass / bitrate=5985 / ratetol=1.0 / qcomp=0.60 / qpmin=10 / qpmax=51 / qpstep=4 / cplxblur=20.0 / qblur=0.5 / ip_ratio=1.40 / pb_ratio=1.30 / aq=1:1.00
Язык : English
Default : Да
Forced : Нет

Аудио #1
Идентификатор : 2
Формат : AC-3
Формат/Информация : Audio Coding 3
Расширение режима : CM (complete main)
Параметр Endianness формата : Big
Идентификатор кодека : A_AC3
Продолжительность : 1 ч. 42 м.
Вид битрейта : Постоянный
Битрейт : 384 Кбит/сек
Каналы : 6 каналов
Расположение каналов : Front: L C R, Side: L R, LFE
Частота : 48,0 КГц
Битовая глубина : 16 бит
Метод сжатия : С потерями
Размер потока : 283 Мбайт (4%)
Заголовок : AC3 5.1 @ 384 kbps - Многоголосый закадровый
Язык : Russian
Default : Да
Forced : Нет

Аудио #2
Идентификатор : 3
Формат : AC-3
Формат/Информация : Audio Coding 3
Расширение режима : CM (complete main)
Параметр Endianness формата : Big
Идентификатор кодека : A_AC3
Продолжительность : 1 ч. 42 м.
Вид битрейта : Постоянный
Битрейт : 192 Кбит/сек
Каналы : 2 канала
Расположение каналов : Front: L R
Частота : 48,0 КГц
Битовая глубина : 16 бит
Метод сжатия : С потерями
Размер потока : 141 Мбайт (2%)
Заголовок : AC3 2.0 @ 192 kbps - Многоголосый закадровый (Family Fun Edition)
Язык : Russian
Default : Нет
Forced : Нет

Аудио #3
Идентификатор : 4
Формат : AC-3
Формат/Информация : Audio Coding 3
Расширение режима : CM (complete main)
Параметр Endianness формата : Big
Идентификатор кодека : A_AC3
Продолжительность : 1 ч. 42 м.
Вид битрейта : Постоянный
Битрейт : 192 Кбит/сек
Каналы : 2 канала
Расположение каналов : Front: L R
Частота : 48,0 КГц
Битовая глубина : 16 бит
Метод сжатия : С потерями
Размер потока : 141 Мбайт (2%)
Заголовок : AC3 2.0 @ 192 kbps - Многоголосый закадровый (Телеканал ОРТ)
Язык : Russian
Default : Нет
Forced : Нет

Аудио #4
Идентификатор : 5
Формат : AC-3
Формат/Информация : Audio Coding 3
Расширение режима : CM (complete main)
Параметр Endianness формата : Big
Идентификатор кодека : A_AC3
Продолжительность : 1 ч. 42 м.
Вид битрейта : Постоянный
Битрейт : 192 Кбит/сек
Каналы : 2 канала
Расположение каналов : Front: L R
Частота : 48,0 КГц
Битовая глубина : 16 бит
Метод сжатия : С потерями
Размер потока : 141 Мбайт (2%)
Заголовок : AC3 2.0 @ 192 kbps - Многоголосый закадровый - (Новый канал)
Язык : Ukrainian
Default : Нет
Forced : Нет

Аудио #5
Идентификатор : 6
Формат : DTS
Формат/Информация : Digital Theater Systems
Идентификатор кодека : A_DTS
Продолжительность : 1 ч. 42 м.
Вид битрейта : Постоянный
Битрейт : 1510 Кбит/сек
Каналы : 6 каналов
Расположение каналов : Front: L C R, Side: L R, LFE
Частота : 48,0 КГц
Битовая глубина : 24 бит
Метод сжатия : С потерями
Размер потока : 1,09 Гбайт (15%)
Заголовок : DTS 5.1 @ 1536 kbps - Одноголосый закадровый (А.Михалев)
Язык : Russian
Default : Нет
Forced : Нет

Аудио #6
Идентификатор : 7
Формат : AC-3
Формат/Информация : Audio Coding 3
Расширение режима : CM (complete main)
Параметр Endianness формата : Big
Идентификатор кодека : A_AC3
Продолжительность : 1 ч. 42 м.
Вид битрейта : Постоянный
Битрейт : 192 Кбит/сек
Каналы : 2 канала
Расположение каналов : Front: L R
Частота : 48,0 КГц
Битовая глубина : 16 бит
Метод сжатия : С потерями
Размер потока : 141 Мбайт (2%)
Заголовок : AC3 2.0 @ 192 kbps - Одноголосый закадровый (В.Дохалов)
Язык : Russian
Default : Нет
Forced : Нет

Аудио #7
Идентификатор : 8
Формат : DTS
Формат/Информация : Digital Theater Systems
Идентификатор кодека : A_DTS
Продолжительность : 1 ч. 42 м.
Вид битрейта : Постоянный
Битрейт : 1510 Кбит/сек
Каналы : 6 каналов
Расположение каналов : Front: L C R, Side: L R, LFE
Частота : 48,0 КГц
Битовая глубина : 24 бит
Метод сжатия : С потерями
Размер потока : 1,09 Гбайт (15%)
Заголовок : DTS 5.1 @ 1536 kbps
Язык : English
Default : Нет
Forced : Нет

Аудио #8
Идентификатор : 9
Формат : Vorbis
Параметр Floor формата : 1
Идентификатор кодека : A_VORBIS
Продолжительность : 1 ч. 42 м.
Вид битрейта : Переменный
Битрейт : 64,0 Кбит/сек
Каналы : 2 канала
Частота : 48,0 КГц
Метод сжатия : С потерями
Размер потока : 47,1 Мбайт (1%)
Заголовок : OGG 2.0 @ 64 kbps - Комментарии
Библиотека кодирования : libVorbis 1.2 (UTC 2007-06-22)
Язык : English
Default : Нет
Forced : Нет
Программа кодирования : Made with BeSweet v1.5b31
Encoded_Application/Url : http://DSPguru.doom9.org

Текст #1
Идентификатор : 10
Формат : UTF-8
Идентификатор кодека : S_TEXT/UTF8
Идентификатор кодека/Информация : UTF-8 Plain Text
Язык : Russian
Default : Да
Forced : Нет

Текст #2
Идентификатор : 11
Формат : UTF-8
Идентификатор кодека : S_TEXT/UTF8
Идентификатор кодека/Информация : UTF-8 Plain Text
Язык : Russian
Default : Нет
Forced : Нет

Текст #3
Идентификатор : 12
Формат : UTF-8
Идентификатор кодека : S_TEXT/UTF8
Идентификатор кодека/Информация : UTF-8 Plain Text
Язык : Ukrainian
Default : Нет
Forced : Нет

Текст #4
Идентификатор : 13
Формат : UTF-8
Идентификатор кодека : S_TEXT/UTF8
Идентификатор кодека/Информация : UTF-8 Plain Text
Язык : English
Default : Нет
Forced : Нет

Меню
00:00:00.000 : en:Begin
00:03:47.060 : en:Chapter 2
00:05:46.680 : en:Chapter 3
00:08:49.279 : en:Chapter 4
00:11:28.730 : en:Chapter 5
00:13:43.239 : en:Chapter 6
00:19:27.458 : en:Chapter 7
00:25:08.173 : en:Chapter 8
00:31:16.041 : en:Chapter 9
00:35:56.654 : en:Chapter 10
00:41:09.550 : en:Chapter 11
00:51:22.663 : en:Chapter 12
00:57:38.580 : en:Chapter 13
01:03:27.637 : en:Chapter 14
01:06:33.656 : en:Chapter 15
01:13:43.836 : en:Chapter 16
01:15:13.217 : en:Chapter 17
01:19:27.054 : en:Chapter 18
01:22:51.341 : en:Chapter 19
01:26:00.071 : en:Chapter 20
01:28:45.070 : en:Chapter 21
01:33:32.231 : en:Chapter 22
01:37:58.289 : en:Chapter 23
01:39:06.065 : en:Chapter 24
01:42:54.126 : en:Chapter 25
Свернуть
Скриншоты
Изображение

Изображение

Изображение

Изображение

Изображение
Свернуть
Не в сети
Профиль  
 Добавлено: 2013-01-06 16:21 (спустя 5 месяцев 23 дня)
Стаж: 4 года 9 месяцев
Сообщений: 2
раздайте пожалуйста!!!
Не в сети
Профиль  
Начать новую темуОтветить на тему  [ Сообщений: 2 ] 
Вы не можете начинать темы
Вы не можете отвечать на сообщения
Вы не можете редактировать свои сообщения
Вы не можете удалять свои сообщения