Правила форума

  • В этом разделе создание новых тем Запрещено.
  • Для создания новых тем пользуйтесь Корневым разделом DVD и HD фильмы.
Начать новую темуОтветить на тему  [ Сообщений: 5 ] 
Торрент файл
Размер: 19.61 GB • Зарегистрирован: 5 лет • Статус: Проверено
Скачан: 233 раза • Желающих скачать: 0 • Поблагодарили: 65 раз
 Раздают: 2  |  0 KB/s  ]   Качают: 0  |  0 KB/s  ] 
Сообщения
 Добавлено: 2011-12-05 14:52
Модератор релиз-группы
Аватара пользователя
Стаж: 9 лет 1 месяц
Возраст: 97
Сообщений: 11659
Спасибок: 6532
Лайков: 269
Один дома I,II / Home Alone I,II

Изображение

Один дома
Один Дома / Home Alone

Изображение

Год выпуска: 1990
Страна: США
Жанр: Комедия
Продолжительность: 1:42:50
Перевод: Профессиональный (многоголосый, закадровый)
Одноголосый закадровый, А.Михалев
Оригинальная звуковая дорожка
Субтитры: Англ

Режиссер: Крис Коламбyс /Chris Columbus/

В ролях: Маколэй Калкин /Macaulay Culkin/, Джо Пеши /Joe Pesci/, Дэниэл Стерн /Daniel Stern/, Джон Херд /John Heard/, Кэтрин О'Хара /Catherine O'Hara/, Хиллэри Вулф /Hillary Wolf/, Энджела Гетлс /Angela Gothals/, Лэрри Хэнкин /Larry Hankin/, Робертс Блоссом /Roberts Blossom/, Девин Рэтрэй /Devin Ratray/, Джери Бэмэн /Gerry Bamman/

Описание: Американское семейство отбыло в Европу, но в спешке забыли дома одного из детишек. Мальчик оказался весьма изобретательным. Когда в дом решили наведаться грабители, то юный американский партизан приготовил им столько сюрпризов в виде различных капканов и ловушек, что смеяться можно на протяжении всего фильма
Качество: BDRip
Формат: MKV
Видео кодек: H.264
Аудио кодек: AC3, DTS
Видео: 1920x1040; 9543Kbps;
Аудио1: Русский (Профессиональный многоголосый), AC3 6ch 384 Kbps
Аудио2: Русский (Профессиональный одноголосый -А.Михалев), AC3 6ch 448 Kbps
Аудио3: Английский(Оригинал), DTS 6ch 1536 kbps
Субтитры: Англ
скриншоты
Изображение

Изображение

Изображение
Свернуть
Mi
Format : Matroska
Format version : Version 1
File size : 8.54 GiB
Duration : 1h 42mn
Overall bit rate : 11.9 Mbps
Encoded date : UTC 2009-01-07 05:18:01
Writing application : mkvmerge v2.4.1 ('Use Me') built on Dec 5 2008 18:30:05
Writing library : libebml v0.7.7 + libmatroska v0.8.1

Video
ID : 1
Format : AVC
Format/Info : Advanced Video Codec
Format profile : High@L4.1
Format settings, CABAC : Yes
Format settings, ReFrames : 5 frames
Codec ID : V_MPEG4/ISO/AVC
Duration : 1h 42mn
Bit rate : 9 543 Kbps
Width : 1 920 pixels
Height : 1 040 pixels
Display aspect ratio : 16:9
Frame rate : 23.976 fps
Color space : YUV
Chroma subsampling : 4:2:0
Bit depth : 8 bits
Scan type : Progressive
Bits/(Pixel*Frame) : 0.199
Stream size : 6.69 GiB (78%)
Writing library : x264 core 65 r1061 839cd8c
Encoding settings : cabac=1 / ref=5 / deblock=1:0:0 / analyse=0x3:0x133 / me=umh / subme=7 / psy_rd=1.0:0.0 / mixed_ref=1 / me_range=16 / chroma_me=1 / trellis=1 / 8x8dct=1 / cqm=0 / deadzone=21,11 / chroma_qp_offset=-2 / threads=6 / nr=0 / decimate=1 / mbaff=0 / bframes=3 / b_pyramid=1 / b_adapt=1 / b_bias=0 / direct=1 / wpredb=1 / keyint=250 / keyint_min=25 / scenecut=40(pre) / rc=2pass / bitrate=9543 / ratetol=1.0 / qcomp=0.60 / qpmin=10 / qpmax=51 / qpstep=4 / cplxblur=20.0 / qblur=0.5 / ip_ratio=1.40 / pb_ratio=1.30 / aq=1:1.00
Language : English

Audio #1
ID : 2
Format : AC-3
Format/Info : Audio Coding 3
Mode extension : CM (complete main)
Codec ID : A_AC3
Duration : 1h 42mn
Bit rate mode : Constant
Bit rate : 384 Kbps
Channel(s) : 6 channels
Channel positions : Front: L C R, Side: L R, LFE
Sampling rate : 48.0 KHz
Bit depth : 16 bits
Compression mode : Lossy
Stream size : 283 MiB (3%)
Language : Russian

Audio #2
ID : 3
Format : AC-3
Format/Info : Audio Coding 3
Mode extension : CM (complete main)
Codec ID : A_AC3
Duration : 1h 42mn
Bit rate mode : Constant
Bit rate : 448 Kbps
Channel(s) : 6 channels
Channel positions : Front: L C R, Side: L R, LFE
Sampling rate : 48.0 KHz
Bit depth : 16 bits
Compression mode : Lossy
Delay relative to video : 24ms
Stream size : 330 MiB (4%)
Language : Russian

Audio #3
ID : 4
Format : DTS
Format/Info : Digital Theater Systems
Codec ID : A_DTS
Duration : 1h 42mn
Bit rate mode : Constant
Bit rate : 1 510 Kbps
Channel(s) : 6 channels
Channel positions : Front: L C R, Side: L R, LFE
Sampling rate : 48.0 KHz
Bit depth : 24 bits
Compression mode : Lossy
Stream size : 1.09 GiB (13%)
Language : English

Text
ID : 5
Format : UTF-8
Codec ID : S_TEXT/UTF8
Codec ID/Info : UTF-8 Plain Text
Language : English

Свернуть
Свернуть

Один дома 2: Затерянный в Нью-Йорке
Один дома 2: Затерянный в Нью-Йорке / Home Alone 2: Lost in New York

Изображение


Год выпуска: 1992
Страна: США
Жанр: комедия, приключения, семейный, криминал
Продолжительность: 02:00:01
Перевод: Профессиональный (полное дублирование)
Многоголосый закадровый|
Одноголосый закадровый, А. Михалев
Одноголосый закадровый, В. Горчаков
Оригинальная звуковая дорожка
Cубтитры: Русские

Режиссер: Крис Коламбус / Chris Columbus

В ролях: Маколей Калкин, Джо Пеши, Дэниел Стерн, Кэтрин О’Хара, Джон Хёрд, Девин Рэтрей, Хиллари Вульф, Морин Элизабет Шэй, Майкл С. Маронна, Джерри Бэммен

Описание: Самый маленький герой Америки устраивает большой переполох в Нью Йорке! Кевин МакКалистер вернулся! Но теперь он один не дома, а в Нью Йорке и у него достаточно денег и кредитных карточек, чтобы превратить Большое Яблоко в собственную площадку для игр.
Но, как всегда, Кевину не суждено быть долго одному, его старые приятели жулики Гарри и Марв сбежали из тюрьмы, куда они попали стараниями Кевина. И надо же им было попасть именно в тот город, где Кевин планировал поразвлечься. Новые западни и ловушки уже ждут горе бандитов.
Знаете ли вы, что...
В первой части картины Кевин смотрит фильм под названием «Ангелы с запятнанными душами». Во второй части Кевин смотрит сиквел под названием «Ангелы с отвратительно мерзкими душами».
Макалай Калкин получил гонорар в размере 8 миллионов долларов за участие в сиквеле. На тот момент это был самый ценный чек, выписанный на имя 12-летнего мальчика.
Магазин игрушек носит название «Игрушечная лавка Данкана». Это название магазин получил в честь исполнительного продюсера Данкана Хендерсона.
Эпизодическая роль досталась дочери режиссера фильма Криса Коламбуса. Элеанора Коламбус сыграла маленькую покупательницу в магазине игрушек.
Спустя несколько недель после выхода картины на экраны, компания Tiger Electronics выпустила настоящую версию игрушки Talkboy (компактный кассетник), которую Кевин активно использует в процессе фильма. Более того, на фоне успеха была выпущена и женская модель игрушки под названием Talkgirl. Надо ли говорить, что игрушка пользовалась бешеной популярностью.
Во время остановки в гостинице во Флориде семейство МакКалистеров дружно смотрит по телевизору фильм Роберто Росселини «Европа '51» с Ингрид Бергман в главной роли.
Свернуть

Качество: BDRip
Формат: MKV
Видео кодек: H.264
Аудио кодек: DTS, AC3
Видео: 1920x1040, 23.976 fps, ~9032 kbps
Аудио 1: Russian: 48 kHz, DTS, 3/2 (L,C,R,l,r) + LFE ch, ~768.00 kbps |Дубляж, Blu-ray CEE|
Аудио 2: Russian: 48 kHz, AC3, 3/2 (L,C,R,l,r) + LFE ch, ~384.00 kbps |Многоголосый закадровый|
Аудио 3: Russian: 48 kHz, DTS, 3/2 (L,C,R,l,r) + LFE ch, ~768.00 kbps |Одноголосый закадровый, А. Михалев|
Аудио 4: Russian: 48 kHz, DTS, 3/2 (L,C,R,l,r) + LFE ch, ~768.00 kbps |Одноголосый закадровый, В. Горчаков|
Аудио 5: English: 48 kHz, DTS, 3/2 (L,C,R,l,r) + LFE ch, ~1536.00 kbps
Субтитры: Russian, English
скриншоты
Изображение

Изображение

Изображение
Свернуть
Mi
Format : Matroska
Format version : Version 2
File size : 12.3 GiB
Duration : 2h 0mn
Overall bit rate : 14.7 Mbps
Encoded date : UTC 2009-12-01 16:42:04
Writing application : mkvmerge v2.9.7 ('Tenderness') built on Jul 1 2009 18:43:35
Writing library : libebml v0.7.7 + libmatroska v0.8.1

Video
ID : 1
Format : AVC
Format/Info : Advanced Video Codec
Format profile : High@L4.1
Format settings, CABAC : Yes
Format settings, ReFrames : 4 frames
Codec ID : V_MPEG4/ISO/AVC
Duration : 2h 0mn
Bit rate : 9 032 Kbps
Width : 1 920 pixels
Height : 1 040 pixels
Display aspect ratio : 16:9
Frame rate : 23.976 fps
Color space : YUV
Chroma subsampling : 4:2:0
Bit depth : 8 bits
Scan type : Progressive
Bits/(Pixel*Frame) : 0.189
Stream size : 7.34 GiB (59%)
Writing library : x264 core 79 r1342 e8501ef
Encoding settings : cabac=1 / ref=4 / deblock=1:-2:-2 / analyse=0x3:0x113 / me=umh / subme=10 / psy=1 / psy_rd=0.9:0.2 / mixed_ref=1 / me_range=32 / chroma_me=1 / trellis=2 / 8x8dct=1 / cqm=0 / deadzone=21,11 / chroma_qp_offset=-3 / threads=6 / nr=0 / decimate=1 / mbaff=0 / constrained_intra=0 / bframes=6 / b_pyramid=2 / b_adapt=2 / b_bias=0 / direct=1 / wpredb=1 / wpredp=2 / keyint=250 / keyint_min=25 / scenecut=40 / rc_lookahead=0 / rc=2pass / mbtree=0 / bitrate=9032 / ratetol=1.0 / qcomp=0.60 / qpmin=10 / qpmax=51 / qpstep=4 / cplxblur=20.0 / qblur=0.5 / vbv_maxrate=50000 / vbv_bufsize=62500 / ip_ratio=1.40 / pb_ratio=1.30 / aq=1:1.00

Audio #1
ID : 2
Format : DTS
Format/Info : Digital Theater Systems
Codec ID : A_DTS
Duration : 2h 0mn
Bit rate mode : Constant
Bit rate : 755 Kbps
Channel(s) : 6 channels
Channel positions : Front: L C R, Side: L R, LFE
Sampling rate : 48.0 KHz
Bit depth : 24 bits
Compression mode : Lossy
Stream size : 648 MiB (5%)
Title : DUB
Language : Russian

Audio #2
ID : 3
Format : AC-3
Format/Info : Audio Coding 3
Mode extension : CM (complete main)
Codec ID : A_AC3
Duration : 2h 0mn
Bit rate mode : Constant
Bit rate : 384 Kbps
Channel(s) : 6 channels
Channel positions : Front: L C R, Side: L R, LFE
Sampling rate : 48.0 KHz
Bit depth : 16 bits
Compression mode : Lossy
Stream size : 330 MiB (3%)
Title : MVO
Language : Russian

Audio #3
ID : 5
Format : DTS
Format/Info : Digital Theater Systems
Codec ID : A_DTS
Duration : 2h 0mn
Bit rate mode : Constant
Bit rate : 755 Kbps
Channel(s) : 6 channels
Channel positions : Front: L C R, Side: L R, LFE
Sampling rate : 48.0 KHz
Bit depth : 24 bits
Compression mode : Lossy
Stream size : 648 MiB (5%)
Title : Mihalev
Language : Russian

Audio #4
ID : 6
Format : DTS
Format/Info : Digital Theater Systems
Codec ID : A_DTS
Duration : 2h 0mn
Bit rate mode : Constant
Bit rate : 755 Kbps
Channel(s) : 6 channels
Channel positions : Front: L C R, Side: L R, LFE
Sampling rate : 48.0 KHz
Bit depth : 24 bits
Compression mode : Lossy
Stream size : 648 MiB (5%)
Title : Gorchakov
Language : Russian

Audio #5
ID : 7
Format : DTS
Format/Info : Digital Theater Systems
Codec ID : A_DTS
Duration : 2h 0mn
Bit rate mode : Constant
Bit rate : 1 510 Kbps
Channel(s) : 6 channels
Channel positions : Front: L C R, Side: L R, LFE
Sampling rate : 48.0 KHz
Bit depth : 24 bits
Compression mode : Lossy
Stream size : 1.27 GiB (10%)
Language : English

Text #1
ID : 8
Format : UTF-8
Codec ID : S_TEXT/UTF8
Codec ID/Info : UTF-8 Plain Text
Language : Russian

Text #2
ID : 9
Format : UTF-8
Codec ID : S_TEXT/UTF8
Codec ID/Info : UTF-8 Plain Text
Language : English

Свернуть
Свернуть
Изображение
_________________
Изображение


Последний раз редактировалось Артурыч 2011-12-09 07:30, всего редактировалось 1 раз.
Не в сети
Профиль  
 Добавлено: 2011-12-18 19:36 (спустя 13 дней)
Аватара пользователя
Стаж: 7 лет 11 месяцев
Сообщений: 786
Спасибок: 25
Лайков: 9
ПОМОГИТЕ СКАЧАТЬ ОЧЕНЬ ХОЧУ В КОЛЛЕКЦИЮ , АВТОРУ ОГРОМНОЕ СПАСИБО ЗА ТЕМУ !!!! :co_ol:
Не в сети
Профиль  
 Добавлено: 2012-12-18 15:52 (спустя 11 месяцев)
Аватара пользователя
Стаж: 4 года 6 месяцев
Возраст: 21
Сообщений: 27
Спасибок: 23
Автору, конечно, бесконечный почёт и процветание!! :ti_pa:
_________________
Изображение
Не в сети
Профиль  
 Добавлено: 2014-11-30 15:58 (спустя 1 год 11 месяцев)
Аватара пользователя
Стаж: 8 лет 11 месяцев
Сообщений: 91
Спасибок: 65
Лайков: 7
ну раздайте плиз))))
Не в сети
Профиль  
 Добавлено: 2014-12-24 17:35 (спустя 24 дня)
Аватара пользователя
Стаж: 9 лет 1 месяц
Возраст: 36
Сообщений: 195
Спасибок: 20
Лайков: 8
В 3D б еще.
Не в сети
Профиль  
Начать новую темуОтветить на тему  [ Сообщений: 5 ] 
Вы не можете начинать темы
Вы не можете отвечать на сообщения
Вы не можете редактировать свои сообщения
Вы не можете удалять свои сообщения