Правила форума

  • В этом разделе создание новых тем Запрещено.
  • Для создания новых тем пользуйтесь Корневым разделом DVD и HD фильмы.
Начать новую темуОтветить на тему  [ Сообщений: 3 ] 
Торрент файл
Размер: 15.33 GB • Зарегистрирован: 4 года 10 месяцев • Статус: Проверено
Скачан: 53 раза • Желающих скачать: 0 • Поблагодарили: 11 раз
 Раздают: 0  |  0 KB/s  ]   Качают: 0  |  0 KB/s  ] 
 Полного источника не было 1 год 6 месяцев 
Сообщения
 Добавлено: 2012-02-03 12:51
Модератор
Аватара пользователя
Стаж: 5 лет 8 месяцев
Сообщений: 6281
Спасибок: 17338
Лайков: 1633
Однажды в Ирландии / The Guard

Изображение


Год выпуска: 2011
Страна: Ирландия
Жанр: триллер, комедия, криминал
Продолжительность: 96 мин. / 01:36
Перевод: Дмитрий "Гоблин" Пучков (одноголосый, закадровый)
Субтитры: Русские

Режиссёр: Джон Майкл МакДона
Сценарист: Джон Майкл МакДона
Продюсер: Крис Кларк, Флора Фернандес-Маренго, Эд Гуене
Оператор: Ларри Смит
Композитор: Калексико
В ролях: Брендан Глисон, Дон Чидл, Марк Стронг, Лиам Каннингэм, Дэвид Уилмот, Рори Кинэн, Фионнула Флэнаган, Доминик МакЭллигот, Сара Грин, Катарина Кэс
Описание: Женщины, выпивка и веселые шутки — вот радости добродушного ирландского полицейского, сержанта Джерри Бойла. Он никогда не помышлял о геройстве, пока однажды в Дублине не появился агент ФБР, который призвал незадачливого служителя порядка помочь ему накрыть международную банду наркоторговцев. Смогут ли сработаться веселый рыжий ирландец и решительный афроамериканец? Ведь дело, за которое они взялись, окажется таким же непредсказуемым, как и они сами…
Рейтинг MPAA: Рейтинг R (Подростки до 17 лет допускаются на фильм только в сопровождении одного из родителей)
Мировая премьера: 20 января 2011
Премьера в России: 1 декабря 2011
Бюджет: $6 000 000

Изображение

Качество: Blu-ray
Формат: BDMV
Видео кодек: MPEG-4 AVC Video
Аудио кодек: DTS
Видео: MPEG-4 AVC Video / 14293 kbps / 1080p / 23,976 fps / 16:9 / High Profile 4.1
Аудио #1: Русский DTS-HD MA 5.1 (48 kHz / 2059 kbps / 16-bit) (DTS Core: 5.1 / 48 kHz / 1509 kbps / 16-bit) (Дмитрий «Гоблин» Пучков)
Аудио #2: English DTS-HD MA 5.1 (48 kHz / 2000 kbps / 16-bit) (DTS Core: 5.1 / 48 kHz / 1509 kbps / 16-bit)
Субтитры: Русские
Скриншоты
Изображение
Изображение
Изображение
Изображение
Изображение
Изображение
Свернуть

MediaInfo
Общее
Идентификатор: 0 (0x0)
Полное имя: F:\Films\Comedy\GUARD_HDCLUB\BDMV\STREAM\00000.m2ts
Формат: BDAV
Формат/Информация: Blu-ray Video
Размер файла: 2,44 Мбайт
Продолжительность: 6 с. 660 мс.
Режим общего битрейта: Переменный
Общий поток: 3071 Кбит/сек
Максимальный общий битрейт: 48,0 Мбит/сек

Видео
Идентификатор: 4113 (0x1011)
Идентификатор меню: 1 (0x1)
Формат: AVC
Формат/Информация: Advanced Video Codec
Профиль формата: Main@L4.1
Параметр CABAC формата: Да
Параметр ReFrames формата: 3 кадра
Параметр GOP формата: M=4, N=18
Идентификатор кодека: 27
Продолжительность: 6 с. 720 мс.
Вид битрейта: Переменный
Битрейт: 2942 Кбит/сек
Максимальный битрейт: 24,0 Мбит/сек
Ширина: 1920 пикселей
Высота: 1080 пикселей
Соотношение сторон: 16:9
Частота кадров: 25,000 кадров/сек
Стандарт вещания: PAL
Цветовое пространство: YUV
Субдискретизация насыщенности: 4:2:0
Битовая глубина: 8 бит
Тип развёртки: Чересстрочная
Порядок развёртки: Верхнее поле первое
Бит/(Пиксели*Кадры): 0.057
Размер потока: 2,36 Мбайт (96%)

Общее
Идентификатор: 0 (0x0)
Полное имя: F:\Films\Comedy\GUARD_HDCLUB\BDMV\STREAM\00001.m2ts
Формат: BDAV
Формат/Информация: Blu-ray Video
Размер файла: 20,5 Мбайт
Продолжительность: 10 с.
Общий поток: 17,0 Мбит/сек
Максимальный общий битрейт: 48,0 Мбит/сек

Видео
Идентификатор: 4113 (0x1011)
Идентификатор меню: 1 (0x1)
Формат: MPEG Video
Версия формата: Version 2
Профиль формата: Main@High
Параметр BVOP формата: Да
Параметр матрицы формата: По умолчанию
Параметр GOP формата: M=2, N=24
Идентификатор кодека: 2
Продолжительность: 9 с. 880 мс.
Битрейт: 14,8 Мбит/сек
Максимальный битрейт: 15,0 Мбит/сек
Ширина: 1920 пикселей
Высота: 1080 пикселей
Соотношение сторон: 16:9
Частота кадров: 25,000 кадров/сек
Цветовое пространство: YUV
Субдискретизация насыщенности: 4:2:0
Битовая глубина: 8 бит
Тип развёртки: Чересстрочная
Порядок развёртки: Верхнее поле первое
Метод сжатия: С потерями
Бит/(Пиксели*Кадры): 0.285
Размер потока: 17,4 Мбайт (85%)

Аудио
Идентификатор: 4352 (0x1100)
Идентификатор меню: 1 (0x1)
Формат: PCM
Параметр Endianness формата: Big
Параметр Sign формата: Signed
Режим смешивания: Blu-ray
Идентификатор кодека: 128
Продолжительность: 9 с. 925 мс.
Вид битрейта: Постоянный
Битрейт: 1536 Кбит/сек
Каналы: 2 канала
Расположение каналов: Front: L R
Частота: 48,0 КГц
Битовая глубина: 16 бит
Задержка видео: -40 мс.
Размер потока: 1,82 Мбайт (9%)

Общее
Идентификатор: 0 (0x0)
Полное имя: F:\Films\Comedy\GUARD_HDCLUB\BDMV\STREAM\00002.m2ts
Формат: BDAV
Формат/Информация: Blu-ray Video
Размер файла: 143 Мбайт
Продолжительность: 1 м. 1 с.
Общий поток: 19,3 Мбит/сек
Максимальный общий битрейт: 48,0 Мбит/сек

Видео
Идентификатор: 4113 (0x1011)
Идентификатор меню: 1 (0x1)
Формат: MPEG Video
Версия формата: Version 2
Профиль формата: Main@High
Параметр BVOP формата: Да
Параметр матрицы формата: По умолчанию
Параметр GOP формата: M=2, N=24
Идентификатор кодека: 2
Продолжительность: 1 м. 1 с.
Битрейт: 15,5 Мбит/сек
Максимальный битрейт: 15,0 Мбит/сек
Ширина: 1920 пикселей
Высота: 1080 пикселей
Соотношение сторон: 16:9
Частота кадров: 23,976 кадра/сек
Цветовое пространство: YUV
Субдискретизация насыщенности: 4:2:0
Битовая глубина: 8 бит
Тип развёртки: Прогрессивная
Метод сжатия: С потерями
Бит/(Пиксели*Кадры): 0.311
Размер потока: 114 Мбайт (80%)

Аудио #1
Идентификатор: 4352 (0x1100)
Идентификатор меню: 1 (0x1)
Формат: PCM
Параметр Endianness формата: Big
Параметр Sign формата: Signed
Режим смешивания: Blu-ray
Идентификатор кодека: 128
Продолжительность: 1 м. 1 с.
Вид битрейта: Постоянный
Битрейт: 1536 Кбит/сек
Каналы: 2 канала
Расположение каналов: Front: L R
Частота: 48,0 КГц
Битовая глубина: 16 бит
Задержка видео: -42 мс.
Размер потока: 11,3 Мбайт (8%)

Аудио #2
Идентификатор: 4353 (0x1101)
Идентификатор меню: 1 (0x1)
Формат: PCM
Параметр Endianness формата: Big
Параметр Sign формата: Signed
Режим смешивания: Blu-ray
Идентификатор кодека: 128
Продолжительность: 1 м. 1 с.
Вид битрейта: Постоянный
Битрейт: 1536 Кбит/сек
Каналы: 2 канала
Расположение каналов: Front: L R
Частота: 48,0 КГц
Битовая глубина: 16 бит
Задержка видео: -42 мс.
Размер потока: 11,3 Мбайт (8%)

Текст
Идентификатор: 4608 (0x1200)
Идентификатор меню: 1 (0x1)
Формат: PGS
Идентификатор кодека: 144
Задержка видео: -42 мс.

Общее
Идентификатор: 0 (0x0)
Полное имя: F:\Films\Comedy\GUARD_HDCLUB\BDMV\STREAM\00003.m2ts
Формат: BDAV
Формат/Информация: Blu-ray Video
Размер файла: 5,51 Мбайт
Продолжительность: 17 с.
Общий поток: 2666 Кбит/сек
Максимальный общий битрейт: 48,0 Мбит/сек

Общее
Идентификатор: 0 (0x0)
Полное имя: F:\Films\Comedy\GUARD_HDCLUB\BDMV\STREAM\00004.m2ts
Формат: BDAV
Формат/Информация: Blu-ray Video
Размер файла: 5,63 Мбайт
Продолжительность: 18 с.
Общий поток: 2575 Кбит/сек
Максимальный общий битрейт: 48,0 Мбит/сек

Общее
Идентификатор: 0 (0x0)
Полное имя: F:\Films\Comedy\GUARD_HDCLUB\BDMV\STREAM\00005.m2ts
Формат: BDAV
Формат/Информация: Blu-ray Video
Размер файла: 13,5 Гбайт
Продолжительность: 1 ч. 38 м.
Режим общего битрейта: Переменный
Общий поток: 19,7 Мбит/сек
Максимальный общий битрейт: 48,0 Мбит/сек

Видео
Идентификатор: 4113 (0x1011)
Идентификатор меню: 1 (0x1)
Формат: AVC
Формат/Информация: Advanced Video Codec
Профиль формата: Main@L4.1
Параметр CABAC формата: Да
Параметр ReFrames формата: 3 кадра
Параметр GOP формата: M=4, N=18
Идентификатор кодека: 27
Продолжительность: 1 ч. 38 м.
Вид битрейта: Переменный
Битрейт: 15,8 Мбит/сек
Максимальный битрейт: 25,0 Мбит/сек
Ширина: 1920 пикселей
Высота: 1080 пикселей
Соотношение сторон: 16:9
Частота кадров: 23,976 кадра/сек
Стандарт вещания: NTSC
Цветовое пространство: YUV
Субдискретизация насыщенности: 4:2:0
Битовая глубина: 8 бит
Тип развёртки: Прогрессивная
Бит/(Пиксели*Кадры): 0.318
Размер потока: 10,8 Гбайт (80%)

Аудио #1
Идентификатор: 4352 (0x1100)
Идентификатор меню: 1 (0x1)
Формат : DTS
Формат/Информация: Digital Theater Systems
Профиль формата: MA / Core
Режим смешивания: Stream extension
Идентификатор кодека : 134
Продолжительность: 1 ч. 38 м.
Вид битрейта: Переменный
Битрейт: 1561 Кбит/сек / 1510 Кбит/сек
Каналы: 6 каналов
Расположение каналов: Front: L C R, Side: L R, LFE
Частота: 48,0 КГц
Битовая глубина: 16 бит
Метод сжатия: Без потерь / Lossy

Аудио #2
Идентификатор: 4353 (0x1101)
Идентификатор меню: 1 (0x1)
Формат: DTS
Формат/Информация: Digital Theater Systems
Профиль формата: MA / Core
Режим смешивания: Stream extension
Идентификатор кодека: 134
Продолжительность: 1 ч. 38 м.
Вид битрейта: Переменный
Битрейт: 1561 Кбит/сек / 1510 Кбит/сек
Каналы: 6 каналов
Расположение каналов: Front: L C R, Side: L R, LFE
Частота: 48,0 КГц
Битовая глубина: 16 бит
Метод сжатия: Без потерь / Lossy

Общее
Идентификатор: 0 (0x0)
Полное имя: F:\Films\Comedy\GUARD_HDCLUB\BDMV\STREAM\00006.m2ts
Формат: BDAV
Формат/Информация: Blu-ray Video
Размер файла: 109 Мбайт
Продолжительность: 1 м. 34 с.
Режим общего битрейта: Переменный
Общий поток: 9721 Кбит/сек
Максимальный общий битрейт: 48,0 Мбит/сек

Видео
Идентификатор: 4113 (0x1011)
Идентификатор меню: 1 (0x1)
Формат: AVC
Формат/Информация: Advanced Video Codec
Профиль формата: Main@L4.1
Параметр CABAC формата: Да
Параметр ReFrames формата: 3 кадра
Идентификатор кодека: 27
Продолжительность: 1 м. 33 с.
Вид битрейта: Переменный
Битрейт: 9136 Кбит/сек
Максимальный битрейт: 25,0 Мбит/сек
Ширина: 1920 пикселей
Высота: 1080 пикселей
Соотношение сторон: 16:9
Частота кадров: 24,000 кадра/сек
Стандарт вещания: NTSC
Цветовое пространство: YUV
Субдискретизация насыщенности: 4:2:0
Битовая глубина: 8 бит
Тип развёртки: Прогрессивная
Бит/(Пиксели*Кадры): 0.184
Размер потока: 102 Мбайт (94%)

Аудио
Идентификатор: 4352 (0x1100)
Идентификатор меню: 1 (0x1)
Формат: AC-3
Формат/Информация: Audio Coding 3
Расширение режима: CM (complete main)
Идентификатор кодека: 129
Продолжительность: 1 м. 33 с.
Вид битрейта: Постоянный
Битрейт: 192 Кбит/сек
Каналы: 2 канала
Расположение каналов: Front: L R
Частота: 48,0 КГц
Битовая глубина: 16 бит
Метод сжатия: С потерями
Размер потока: 2,15 Мбайт (2%)

Общее
Идентификатор: 0 (0x0)
Полное имя: F:\Films\Comedy\GUARD_HDCLUB\BDMV\STREAM\00007.m2ts
Формат: BDAV
Формат/Информация: Blu-ray Video
Размер файла: 218 Мбайт
Продолжительность: 2 м. 15 с.
Режим общего битрейта: Переменный
Общий поток: 13,5 Мбит/сек
Максимальный общий битрейт: 48,0 Мбит/сек

Видео
Идентификатор: 4113 (0x1011)
Идентификатор меню: 1 (0x1)
Формат: AVC
Формат/Информация: Advanced Video Codec
Профиль формата: Main@L4.1
Параметр CABAC формата: Да
Параметр ReFrames формата: 3 кадра
Идентификатор кодека: 27
Продолжительность: 2 м. 14 с.
Вид битрейта: Переменный
Битрейт: 12,5 Мбит/сек
Максимальный битрейт: 25,0 Мбит/сек
Ширина: 1920 пикселей
Высота: 1080 пикселей
Соотношение сторон: 16:9
Частота кадров: 24,000 кадра/сек
Стандарт вещания: NTSC
Цветовое пространство: YUV
Субдискретизация насыщенности: 4:2:0
Битовая глубина: 8 бит
Тип развёртки: Прогрессивная
Бит/(Пиксели*Кадры): 0.251
Размер потока: 201 Мбайт (92%)

Аудио
Идентификатор: 4352 (0x1100)
Идентификатор меню: 1 (0x1)
Формат: AC-3
Формат/Информация: Audio Coding 3
Расширение режима: CM (complete main)
Идентификатор кодека: 129
Продолжительность: 2 м. 14 с.
Вид битрейта: Постоянный
Битрейт: 448 Кбит/сек
Каналы: 6 каналов
Расположение каналов: Front: L C R, Side: L R, LFE
Частота: 48,0 КГц
Битовая глубина: 16 бит
Метод сжатия: С потерями
Размер потока: 7,19 Мбайт (3%)

Общее
Идентификатор: 0 (0x0)
Полное имя: F:\Films\Comedy\GUARD_HDCLUB\BDMV\STREAM\00008.m2ts
Формат: BDAV
Формат/Информация: Blu-ray Video
Размер файла: 188 Мбайт
Продолжительность: 1 м. 46 с.
Режим общего битрейта: Переменный
Общий поток: 14,8 Мбит/сек
Максимальный общий битрейт: 48,0 Мбит/сек

Видео
Идентификатор: 4113 (0x1011)
Идентификатор меню: 1 (0x1)
Формат: AVC
Формат/Информация: Advanced Video Codec
Профиль формата: Main@L4.1
Параметр CABAC формата: Да
Параметр ReFrames формата: 3 кадра
Параметр GOP формата: M=4, N=18
Идентификатор кодека: 27
Продолжительность: 1 м. 46 с.
Вид битрейта: Переменный
Битрейт: 14,2 Мбит/сек
Максимальный битрейт: 24,0 Мбит/сек
Ширина: 1920 пикселей
Высота: 1080 пикселей
Соотношение сторон: 16:9
Частота кадров: 25,000 кадров/сек
Стандарт вещания: PAL
Цветовое пространство: YUV
Субдискретизация насыщенности: 4:2:0
Битовая глубина: 8 бит
Тип развёртки: Чересстрочная
Порядок развёртки: Верхнее поле первое
Бит/(Пиксели*Кадры): 0.274
Размер потока: 180 Мбайт (96%)

Общее
Идентификатор: 0 (0x0)
Полное имя: F:\Films\Comedy\GUARD_HDCLUB\BDMV\STREAM\00009.m2ts
Формат: BDAV
Формат/Информация: Blu-ray Video
Размер файла: 439 Мбайт
Продолжительность: 2 м. 52 с.
Режим общего битрейта: Переменный
Общий поток: 21,3 Мбит/сек
Максимальный общий битрейт: 48,0 Мбит/сек

Видео
Идентификатор: 4113 (0x1011)
Идентификатор меню: 1 (0x1)
Формат: AVC
Формат/Информация: Advanced Video Codec
Профиль формата: High@L4.1
Параметр CABAC формата: Да
Параметр ReFrames формата: 4 кадра
Идентификатор кодека: 27
Продолжительность: 2 м. 52 с.
Вид битрейта: Переменный
Битрейт: 20,1 Мбит/сек
Максимальный битрейт: 40,0 Мбит/сек
Ширина: 1920 пикселей
Высота: 1080 пикселей
Соотношение сторон: 16:9
Частота кадров: 24,000 кадра/сек
Цветовое пространство: YUV
Субдискретизация насыщенности: 4:2:0
Битовая глубина: 8 бит
Тип развёртки: Прогрессивная
Бит/(Пиксели*Кадры): 0.403
Размер потока: 412 Мбайт (94%)

Аудио
Идентификатор: 4352 (0x1100)
Идентификатор меню: 1 (0x1)
Формат: AC-3
Формат/Информация: Audio Coding 3
Расширение режима CM (complete main)
Идентификатор кодека: 129
Продолжительность: 2 м. 52 с.
Вид битрейта: Постоянный
Битрейт: 384 Кбит/сек
Каналы: 6 каналов
Расположение каналов: Front: L C R, Side: L R, LFE
Частота: 48,0 КГц
Битовая глубина: 16 бит
Метод сжатия: С потерями
Размер потока: 7,89 Мбайт (2%)

Общее
Идентификатор: 0 (0x0)
Полное имя: F:\Films\Comedy\GUARD_HDCLUB\BDMV\STREAM\00010.m2ts
Формат: BDAV
Формат/Информация: Blu-ray Video
Размер файла: 215 Мбайт
Продолжительность: 2 м. 22 с.
Режим общего битрейта: Переменный
Общий поток: 12,7 Мбит/сек
Максимальный общий битрейт: 48,0 Мбит/сек

Видео
Идентификатор: 4113 (0x1011)
Идентификатор меню: 1 (0x1)
Формат: AVC
Формат/Информация: Advanced Video Codec
Профиль формата: Main@L4.1
Параметр CABAC формата: Да
Параметр ReFrames формата: 3 кадра
Идентификатор кодека: 27
Продолжительность: 2 м. 22 с.
Вид битрейта: Переменный
Битрейт: 12,0 Мбит/сек
Максимальный битрейт: 25,0 Мбит/сек
Ширина: 1920 пикселей
Высота: 1080 пикселей
Соотношение сторон: 16:9
Частота кадров: 24,000 кадра/сек
Стандарт вещания: NTSC
Цветовое пространство: YUV
Субдискретизация насыщенности: 4:2:0
Битовая глубина: 8 бит
Тип развёртки: Прогрессивная
Бит/(Пиксели*Кадры): 0.240
Размер потока: 203 Мбайт (94%)

Аудио
Идентификатор: 4352 (0x1100)
Идентификатор меню: 1 (0x1)
Формат : AC-3
Формат/Информация: Audio Coding 3
Расширение режима: CM (complete main)
Идентификатор кодека: 129
Продолжительность: 2 м. 22 с.
Вид битрейта: Постоянный
Битрейт: 192 Кбит/сек
Каналы: 2 канала
Расположение каналов: Front: L R
Частота: 48,0 КГц
Битовая глубина: 16 бит
Метод сжатия: С потерями
Размер потока: 3,26 Мбайт (2%)

Общее
Идентификатор: 0 (0x0)
Полное имя: F:\Films\Comedy\GUARD_HDCLUB\BDMV\STREAM\00011.m2ts
Формат: BDAV
Формат/Информация: Blu-ray Video
Размер файла: 157 Мбайт
Продолжительность: 1 м. 50 с.
Режим общего битрейта: Переменный
Общий поток: 11,8 Мбит/сек
Максимальный общий битрейт: 48,0 Мбит/сек

Видео
Идентификатор: 4113 (0x1011)
Идентификатор меню: 1 (0x1)
Формат: AVC
Формат/Информация: Advanced Video Codec
Профиль формата: Main@L4.1
Параметр CABAC формата: Да
Параметр ReFrames формата: 3 кадра
Идентификатор кодека: 27
Продолжительность: 1 м. 50 с.
Вид битрейта: Переменный
Битрейт: 11,2 Мбит/сек
Максимальный битрейт: 25,0 Мбит/сек
Ширина: 1920 пикселей
Высота: 1080 пикселей
Соотношение сторон: 16:9
Частота кадров: 24,000 кадра/сек
Стандарт вещания: NTSC
Цветовое пространство: YUV
Субдискретизация насыщенности: 4:2:0
Битовая глубина: 8 бит
Тип развёртки: Прогрессивная
Бит/(Пиксели*Кадры): 0.225
Размер потока: 148 Мбайт (94%)

Аудио
Идентификатор: 4352 (0x1100)
Идентификатор меню: 1 (0x1)
Формат: AC-3
Формат/Информация: Audio Coding 3
Расширение режима: CM (complete main)
Идентификатор кодека: 129
Продолжительность: 1 м. 50 с.
Вид битрейта: Постоянный
Битрейт: 192 Кбит/сек
Каналы: 2 канала
Расположение каналов: Front: L R
Частота: 48,0 КГц
Битовая глубина: 16 бит
Метод сжатия: С потерями
Размер потока: 2,54 Мбайт (2%)

Общее
Идентификатор: 0 (0x0)
Полное имя: F:\Films\Comedy\GUARD_HDCLUB\BDMV\STREAM\00012.m2ts
Формат: BDAV
Формат/Информация: Blu-ray Video
Размер файла: 175 Мбайт
Продолжительность: 1 м. 42 с.
Режим общего битрейта: Переменный
Общий поток: 14,3 Мбит/сек
Максимальный общий битрейт: 48,0 Мбит/сек

Видео
Идентификатор: 4113 (0x1011)
Идентификатор меню: 1 (0x1)
Формат: AVC
Формат/Информация: Advanced Video Codec
Профиль формата: Main@L4.1
Параметр CABAC формата: Да
Параметр ReFrames формата: 3 кадра
Идентификатор кодека: 27
Продолжительность: 1 м. 42 с.
Вид битрейта: Переменный
Битрейт: 13,6 Мбит/сек
Максимальный битрейт: 25,0 Мбит/сек
Ширина: 1920 пикселей
Высота: 1080 пикселей
Соотношение сторон: 16:9
Частота кадров: 24,000 кадра/сек
Стандарт вещания: NTSC
Цветовое пространство: YUV
Субдискретизация насыщенности: 4:2:0
Битовая глубина: 8 бит
Тип развёртки: Прогрессивная
Бит/(Пиксели*Кадры): 0.272
Размер потока: 165 Мбайт (94%)

Аудио
Идентификатор: 4352 (0x1100)
Идентификатор меню: 1 (0x1)
Формат: AC-3
Формат/Информация: Audio Coding 3
Расширение режима: CM (complete main)
Идентификатор кодека: 129
Продолжительность: 1 м. 42 с.
Вид битрейта: Постоянный
Битрейт: 192 Кбит/сек
Каналы: 2 канала
Расположение каналов: Front: L R
Частота: 48,0 КГц
Битовая глубина: 16 бит
Метод сжатия: С потерями
Размер потока: 2,34 Мбайт (1%)

Общее
Идентификатор: 0 (0x0)
Полное имя: F:\Films\Comedy\GUARD_HDCLUB\BDMV\STREAM\00013.m2ts
Формат: BDAV
Формат/Информация: Blu-ray Video
Размер файла: 165 Мбайт
Продолжительность: 2 м. 19 с.
Режим общего битрейта: Переменный
Общий поток: 9902 Кбит/сек
Максимальный общий битрейт: 48,0 Мбит/сек

Видео
Идентификатор: 4113 (0x1011)
Идентификатор меню: 1 (0x1)
Формат: AVC
Формат/Информация: Advanced Video Codec
Профиль формата: Main@L4.1
Параметр CABAC формата: Да
Параметр ReFrames формата: 3 кадра
Идентификатор кодека: 27
Продолжительность: 2 м. 19 с.
Вид битрейта: Переменный
Битрейт: 9053 Кбит/сек
Максимальный битрейт: 24,0 Мбит/сек
Ширина: 1920 пикселей
Высота: 1080 пикселей
Соотношение сторон: 16:9
Частота кадров: 25,000 кадров/сек
Стандарт вещания: PAL
Цветовое пространство: YUV
Субдискретизация насыщенности: 4:2:0
Битовая глубина: 8 бит
Тип развёртки: Чересстрочная
Порядок развёртки: Верхнее поле первое
Бит/(Пиксели*Кадры): 0.175
Размер потока: 150 Мбайт (91%)

Аудио
Идентификатор: 4352 (0x1100)
Идентификатор меню: 1 (0x1)
Формат: AC-3
Формат/Информация: Audio Coding 3
Расширение режима: CM (complete main)
Идентификатор кодека: 129
Продолжительность: 2 м. 19 с.
Вид битрейта: Постоянный
Битрейт: 448 Кбит/сек
Каналы: 6 каналов
Расположение каналов: Front: L C R, Side: L R, LFE
Частота: 48,0 КГц
Битовая глубина: 16 бит
Метод сжатия: С потерями
Размер потока: 7,43 Мбайт (5%)
Свернуть
Не в сети
Профиль  
 Добавлено: 2012-03-08 04:31 (спустя 1 месяц 4 дня)
Аватара пользователя
Стаж: 7 лет 6 месяцев
Возраст: 51
Сообщений: 1782
Лайков: 1403
Вот это фильм! Прикол на приколе! Сперва меня несколько напрягал перевод Гоблина - не поверите, я слышал Гоблина второй раз в жизни.

Но, собственно, речь не об этом. Речь о фильме. Ставлю ему 10 из 10. Может, потому, что ирландцы - такие же страшные раздолбаи, как и мы, русские. А дальше смотрите сами. Оно того стоит.

Очень точно и тонко написанный сценарий. Очень грубо и нежно - одновременно - сыгранный фильм. Игра актеров выше всяких похвал. Безусловный шедевр, близкий русской душе, куда выше того, что в этом году зачем-то кому-то навручали на "Оскаре".

Ирландцы и русския были бы братьями навек. Если бы этот гондон Рики Хаттон не провел такого грязного боя против Кости Цзю... Ну ладно, справимся. Надеюсь, за пару веков противоречия сгладятся. :-*


Последний раз редактировалось Falconet 2015-01-17 15:57, всего редактировалось 1 раз.
Не в сети
Профиль  
 Добавлено: 2013-01-12 13:30 (спустя 10 месяцев)
Модератор
Аватара пользователя
Стаж: 5 лет 8 месяцев
Сообщений: 6281
Спасибок: 17338
Лайков: 1633
:)
_________________
Изображение Изображение Изображение


Тема поднималась пользователем bazanoff 2013-01-12 13:30.
Не в сети
Профиль  
Начать новую темуОтветить на тему  [ Сообщений: 3 ] 
Вы не можете начинать темы
Вы не можете отвечать на сообщения
Вы не можете редактировать свои сообщения
Вы не можете удалять свои сообщения