Правила форума

  • В этом разделе создание новых тем Запрещено.
  • Для создания новых тем пользуйтесь Корневым разделом DVD и HD фильмы.
Начать новую темуОтветить на тему  [ Сообщений: 5 ] 
Торрент файл
Размер: 10.05 GB • Зарегистрирован: 4 года 10 месяцев • Статус: Проверено
Скачан: 72 раза • Желающих скачать: 0 • Поблагодарили: 15 раз
 Раздают: 0  |  0 KB/s  ]   Качают: 0  |  0 KB/s  ] 
 Полного источника не было 3 года 2 месяца 
Сообщения
 Добавлено: 2012-02-05 22:03
Аватара пользователя
Стаж: 4 года 11 месяцев
Сообщений: 24
Спасибок: 357
Однажды в Ирландии
The Guard


Изображение


Год выхода: 2011
Страна: Ирландия

Жанр: триллер, комедия
Продолжительность: 01:35:50
Перевод: Профессиональное(одноголосое) [гоблин]лицензия

Режиссер: Джон Майкл МакДона
Сценарий: Джон Майкл МакДона
Продюсер: Крис Кларк, Флора Фернандес-Маренго, Эд Гуене, ...
Оператор: Ларри Смит
Композитор: Калексико

В ролях: Брендан Глисон, Дон Чидл, Марк Стронг , Доминик МакЭллигот, Лиам Каннингэм, Дэвид Уилмот, Рори Кинэн, Фионнула Флэнаган, Сара Грин, Катарина Кэс

Описание: Женщины, выпивка и веселые шутки — вот радости добродушного ирландского полицейского, сержанта Джерри Бойла. Он никогда не помышлял о геройстве, пока однажды в Дублине не появился агент ФБР, который призвал незадачливого служителя порядка помочь ему накрыть международную банду наркоторговцев. Смогут ли сработаться веселый рыжий ирландец и решительный афроамериканец? Ведь дело, за которое они взялись, окажется таким же непредсказуемым, как и они сами…

Изображение

Изображение

Бюджет: $6 000 000
Cборы в США: $5 358 934
Cборы в мире: + $12 293 587 = $17 652 521
Cборы в России:$385 950

Качество BDRip 1080p R5
Формат: Mkv

Видео: MPEG4 Video (H264) 1920x816 23.98fps
Аудио 1: DTS 48000Hz 6ch 1 510 Kbps
Аудио 2: AC-3 48000Hz 6ch 448 Kbps
Аудио 3: DTS 48000Hz 6ch 1 510 Kbps
Аудио 4: AAC 48000Hz 2ch
Subtitle: Utf-8 (Rus)

Изображение

MediaInfo
General
Unique ID : 250031592452234443518712087996067570649 (0xBC1A5545B108420AAF66837833A563D9)
Complete name : E:\Download\Odnajdi.v.Irlandii.2011.P.BDRip.1080p.mkv
Format : Matroska
Format version : Version 2
File size : 10.1 GiB
Duration : 1h 35mn
Overall bit rate : 15.0 Mbps
Encoded date : UTC 2012-02-05 04:54:26
Writing application : mkvmerge v5.0.1 ('Es ist Sommer') built on Nov 6 2011 16:23:40
Writing library : libebml v1.2.2 + libmatroska v1.3.0

Video
ID : 1
Format : AVC
Format/Info : Advanced Video Codec
Format profile : High@L4.1
Format settings, CABAC : Yes
Format settings, ReFrames : 5 frames
Codec ID : V_MPEG4/ISO/AVC
Duration : 1h 35mn
Nominal bit rate : 11.5 Mbps
Width : 1 920 pixels
Height : 816 pixels
Display aspect ratio : 2.35:1
Frame rate : 23.976 fps
Color space : YUV
Chroma subsampling : 4:2:0
Bit depth : 8 bits
Scan type : Progressive
Bits/(Pixel*Frame) : 0.306
Title : The.Guard.2011.BluRay.1080p.DTS.x264-CHD
Writing library : x264 core 119 r2106+636 fcb18f7
Encoding settings : cabac=1 / ref=5 / deblock=1:-3:-3 / analyse=0x3:0x113 / me=umh / subme=11 / psy=1 / fade_compensate=0.00 / psy_rd=1.05:0.10 / mixed_ref=1 / me_range=48 / chroma_me=1 / trellis=2 / 8x8dct=1 / cqm=1 / deadzone=21,11 / fast_pskip=0 / chroma_qp_offset=-2 / threads=12 / sliced_threads=0 / nr=0 / decimate=1 / interlaced=0 / bluray_compat=0 / constrained_intra=0 / fgo=0 / bframes=6 / b_pyramid=2 / b_adapt=2 / b_bias=0 / direct=3 / weightb=1 / open_gop=0 / weightp=2 / keyint=250 / keyint_min=23 / scenecut=40 / intra_refresh=0 / rc_lookahead=60 / rc=2pass / mbtree=1 / bitrate=11502 / ratetol=2.0 / qcomp=0.70 / qpmin=3 / qpmax=69 / qpstep=4 / cplxblur=20.0 / qblur=0.5 / vbv_maxrate=40000 / vbv_bufsize=30000 / nal_hrd=none / ip_ratio=1.40 / aq=2:1.00
Language : English
Default : Yes
Forced : No

Audio #1
ID : 2
Format : DTS
Format/Info : Digital Theater Systems
Codec ID : A_DTS
Duration : 1h 35mn
Bit rate mode : Constant
Bit rate : 1 510 Kbps
Channel(s) : 6 channels
Channel positions : Front: L C R, Side: L R, LFE
Sampling rate : 48.0 KHz
Bit depth : 24 bits
Compression mode : Lossy
Stream size : 1.01 GiB (10%)
Title : Goblin.DTS
Language : Russian
Default : Yes
Forced : No

Audio #2
ID : 3
Format : AC-3
Format/Info : Audio Coding 3
Mode extension : CM (complete main)
Codec ID : A_AC3
Duration : 1h 35mn
Bit rate mode : Constant
Bit rate : 448 Kbps
Channel(s) : 6 channels
Channel positions : Front: L C R, Side: L R, LFE
Sampling rate : 48.0 KHz
Bit depth : 16 bits
Compression mode : Lossy
Stream size : 307 MiB (3%)
Title : Goblin.AC3
Language : Russian
Default : No
Forced : No

Audio #3
ID : 4
Format : DTS
Format/Info : Digital Theater Systems
Codec ID : A_DTS
Duration : 1h 35mn
Bit rate mode : Constant
Bit rate : 1 510 Kbps
Channel(s) : 6 channels
Channel positions : Front: L C R, Side: L R, LFE
Sampling rate : 48.0 KHz
Bit depth : 24 bits
Compression mode : Lossy
Stream size : 1.01 GiB (10%)
Title : English.DTS
Language : English
Default : No
Forced : No

Audio #4
ID : 5
Format : AAC
Format/Info : Advanced Audio Codec
Format profile : HE-AAC / LC
Codec ID : A_AAC
Duration : 1h 35mn
Channel(s) : 2 channels
Channel positions : Front: L R
Sampling rate : 48.0 KHz / 24.0 KHz
Compression mode : Lossy
Title : Commentary with John Michael McDonagh.AAC
Language : English
Default : No
Forced : No

Text #1
ID : 6
Format : UTF-8
Codec ID : S_TEXT/UTF8
Codec ID/Info : UTF-8 Plain Text
Language : Russian
Default : Yes
Forced : No

Text #2
ID : 7
Format : UTF-8
Codec ID : S_TEXT/UTF8
Codec ID/Info : UTF-8 Plain Text
Language : English
Default : No
Forced : No

Text #3
ID : 8
Format : UTF-8
Codec ID : S_TEXT/UTF8
Codec ID/Info : UTF-8 Plain Text
Language : English
Default : No
Forced : No



Свернуть
Скриншоты
Изображение

Изображение

Изображение

Изображение

Изображение

Свернуть
Не в сети
Профиль  
 Добавлено: 2012-02-08 10:59 (спустя 2 дня 12 часов)
Аватара пользователя
Стаж: 8 лет 1 месяц
Возраст: 32
Сообщений: 496
Спасибок: 737
Релизеру спасибо!
П.С. Фильм посмотрел - полная муть, даже Гоблин не спас(((
Не в сети
Профиль  
 Добавлено: 2012-03-08 04:28 (спустя 28 дней)
Аватара пользователя
Стаж: 7 лет 6 месяцев
Возраст: 51
Сообщений: 1783
Лайков: 1403
Вот это фильм! Прикол на приколе! Сперва меня несколько напрягал перевод Гоблина - не поверите, я слышал Гоблина второй раз в жизни. А В Ирландии мне уже пришлось пару раз побывать. Поэтому я отключил перевод Гоблина и послушал фильм на родном языке. И поверьте мне, как ни странно, гоблиновский перевод, очень неприятный по тембру, показался достаточно точным.

Но, собственно, речь не об этом. Речь о фильме. Ставлю ему 10 из 10. Может, потому, что ирландцы - такие же страшные раздолбаи, как и мы, русские. А дальше смотрите сами. Оно того стоит.

Очень точно и тонко написанный сценарий. Очень грубо и нежно - одновременно - сыгранный фильм. Игра актеров выше всяких похвал. Безусловный шедевр, близкий русской душе, куда выше того, что в этом году зачем-то кому-то навручали на "Оскаре".

Ирландцы и русския были бы братьями навек. Если бы этот гондон Рики Хаттон не провел такого грязного боя против Кости Цзю... Ну ладно, справимся. Надеюсь, за пару веков противоречия сгладятся. :-*
Не в сети
Профиль  
 Добавлено: 2012-03-14 18:30 (спустя 6 дней)
Стаж: 7 лет 3 месяца
Сообщений: 10
фильм тупой.Больше нечего сказать.
Не в сети
Профиль  
 Добавлено: 2012-03-16 00:02 (спустя 1 день 5 часов)
Пользователь забанен
Аватара пользователя
Стаж: 7 лет 6 месяцев
Сообщений: 29
Лайков: 1
Этот фильм сейчас по одному Триколоровскому каналу крутят. Первый раз бегло просмотрел, пару раз улыбнулся. Но что-то зацепило и через день целенаправленно уселся смотреть. Вот тут-то и повеселился от души. Даже не знал, что гоблиновский перевод. Редко англичане снимают достойное кино, да ещё и с юмором. А если не нравится, так это как с нашими клоунами, кому-то Жванецкий тяжеловат, а кому-то и Петросян потянет.
Не в сети
Профиль  
Начать новую темуОтветить на тему  [ Сообщений: 5 ] 
Вы не можете начинать темы
Вы не можете отвечать на сообщения
Вы не можете редактировать свои сообщения
Вы не можете удалять свои сообщения