Правила форума

  • В этом разделе создание новых тем Запрещено.
  • Для создания новых тем пользуйтесь Корневым разделом DVD и HD фильмы.
Начать новую темуОтветить на тему  [ 1 сообщение ] 
Торрент файл
Размер: 6.2 GB • Зарегистрирован: 5 лет 4 месяца • Статус: Проверено
Скачан: 30 раз • Желающих скачать: 0 • Поблагодарили: 7 раз
 Раздают: 0  |  0 KB/s  ]   Качают: 0  |  0 KB/s  ] 
 Полного источника не было 3 года 2 месяца 
Сообщения
 Добавлено: 2011-07-26 10:25
Аватара пользователя
Стаж: 7 лет 11 месяцев
Возраст: 21
Сообщений: 517
Спасибок: 898
Лайков: 1
Однажды в Вегасе / What Happens in Vegas

Слоган: «Ты везунчик!»

Изображение


Год выпуска: 2008
Страна: Изображение США
Жанр: мелодрама, комедия
Продолжительность: 01:40:46
Перевод: Профессиональный (дубляж)

Режиссёр: Том Вон / Tom Vaughan
Сценарист: Дэна Фокс / Dana Fox
Продюсер: Майкл Агиляр / Michael Aguilar, Джозеф М. Карачиоло мл. / Joseph M. Caracciolo Jr., Дин Георгарис / Dean Georgaris, Шон Леви / Shawn Levy, Арнон Милчэн / Arnon Milchan
Оператор: Мэтью Ф. Леонетти / Matthew F. Leonetti
Композитор: Кристоф Бек / Christophe Beck
В ролях: Кэмерон Диаз (Joy McNally,), Эштон Катчер (Jack Fuller), Роб Кордри (Hater), Лэйк Белл (Tipper), Джейсон Судейкис (Mason), Трит Уильямс (Jack Fuller Sr.), Дирдри О’Коннелл (Mrs. Fuller), Мишель Крусик (Chong), Деннис Фарина (Banger), Зак Галифианакис (Dave the Bear), Куин Латифа (Dr. Twitchell), Кристен Риттер (Kelly)
Описание: После ночи кутежа в Городе Грехов двое совершенно незнакомых людей просыпаются в одной постели и пытаются восстановить ход событий вечера. Оказывается, они поженились и взяли огромный джек-пот. И вот на свежую голову молодожены (каждый сам про себя) разрабатывают план, как отделаться от своей «второй половины» и получить весь куш. Там, где замешаны деньги, нет места любви. Хотя в Вегасе случается всякое…
Рейтинг MPAA: Рейтинг PG-13 (Дети до 13 лет допускаются на фильм только с родителями)
Изображение 7.564 (26 293)
Изображение 6.00 (36 513)

Исходник: Однажды в Вегасе / What Happens in Vegas (2008) Blu-Ray Disc - BlueBird-HD
Качество: BDRip 720p
Формат: Matroska
Видео кодек: H.264
Аудио кодек: DTS, AC3
Видео: AVC; 1280x544 (2.35:1); ~6300 Kbps; 23,976 fps; 0,368 bpp
Аудио №1: Russian; 48 kHz, DTS; 768 Kbps; CBR; 6 ch; 24 bit - Дублированный
Аудио №2: English; 48 kHz, DTS; 1509 Kbps; CBR; 6 ch; 24 bit - Оригинал
Аудио №3: English; 48 kHz, AC3 Dolby Digital, 2/0 (L,R) ch, ~224.00 kbps avg - Комментарии режиссера
Субтитры№1: Russian; SRT; UTF-8; Forced
Субтитры№2: Russian; SRT; UTF-8; Full R5
Субтитры№3: English; SRT; UTF-8; SDH
Субтитры№4: Russian; SRT; UTF-8; Commentary
MediaInfo
UniqueID/String : 238396741820865955047520440379986689966 (0xB3598AD8DF6DE411844E534D431C3FAE)
Полное имя : What.Happens.in.Vegas.2008.BDRip.720p.x264.AC3.tRuAVC.mkv
Формат : Matroska
Размер файла : 6,20 Гбайт
Продолжительность : 1 ч. 40 м.
Общий поток : 8806 Кбит/сек
Дата кодирования : UTC 2011-02-10 15:36:37
Программа кодирования : mkvmerge v4.4.0 ('Die Wiederkehr') built on Oct 31 2010 21:52:48
Библиотека кодирования : libebml v1.0.0 + libmatroska v1.0.0
Обложка : Yes

Видео
Идентификатор : 1
Формат : AVC
Формат/Информация : Advanced Video Codec
Профиль формата : High@L4.1
Параметр CABAC формата : Да
Параметр ReFrames формата : 11 кадры
Идентификатор кодека : V_MPEG4/ISO/AVC
Продолжительность : 1 ч. 40 м.
Битрейт : 6142 Кбит/сек
Ширина : 1280 пикс.
Высота : 544 пикс.
Соотношение сторон : 2,35:1
Частота кадров : 23,976 кадр/сек
Цветовое пространство : YUV
Подвыборка цветности : 4:2:0
Битовая глубина : 8 бит
Тип развёртки : Прогрессивная
Бит/(Пиксели*Кадры) : 0.368
Размер потока : 4,32 Гбайт (70%)
Библиотека кодирования : x264 core 113 r1882kMod f6d0c95
Настройки программы : cabac=1 / ref=11 / deblock=1:-2:-1 / analyse=0x3:0x113 / me=umh / subme=10 / psy=1 / fade_compensate=0.00 / psy_rd=0.85:0.12 / mixed_ref=1 / me_range=32 / chroma_me=1 / trellis=2 / 8x8dct=1 / cqm=0 / deadzone=21,11 / fast_pskip=1 / chroma_qp_offset=-3 / threads=6 / sliced_threads=0 / nr=0 / decimate=1 / interlaced=0 / constrained_intra=0 / bframes=10 / b_pyramid=2 / b_adapt=2 / b_bias=0 / direct=1 / weightb=1 / open_gop=0 / weightp=2 / keyint=250 / keyint_min=23 / scenecut=40 / intra_refresh=0 / rc_lookahead=40 / rc=crf / mbtree=0 / crf=19.5000 / qcomp=0.70 / qpmin=0 / qpmax=69 / qpstep=4 / vbv_maxrate=50000 / vbv_bufsize=62500 / crf_max=0.0 / nal_hrd=none / ip_ratio=1.25 / pb_ratio=1.15 / aq=1:1.20
Язык : English
Коэффициенты матрицы : BT.709-5, BT.1361, IEC 61966-2-4 709, SMPTE RP177

Аудио #1
Идентификатор : 2
Формат : DTS
Формат/Информация : Digital Theater Systems
Идентификатор кодека : A_DTS
Продолжительность : 1 ч. 40 м.
Вид битрейта : Постоянный
Битрейт : 755 Кбит/сек
Канал(ы) : 6 канала(ов)
Расположение каналов : Front: L C R, Side: L R, LFE
Частота : 48,0 КГц
Битовая глубина : 24 бит
Метод сжатия : С потерями
Размер потока : 544 Мбайт (9%)
Заголовок : Профессиональный (полное дублирование)
Язык : Russian

Аудио #2
Идентификатор : 3
Формат : DTS
Формат/Информация : Digital Theater Systems
Идентификатор кодека : A_DTS
Продолжительность : 1 ч. 40 м.
Вид битрейта : Постоянный
Битрейт : 1510 Кбит/сек
Канал(ы) : 6 канала(ов)
Расположение каналов : Front: L C R, Side: L R, LFE
Частота : 48,0 КГц
Битовая глубина : 24 бит
Метод сжатия : С потерями
Размер потока : 1,06 Гбайт (17%)
Заголовок : Оригинал
Язык : English

Аудио #3
Идентификатор : 4
Формат : AC-3
Формат/Информация : Audio Coding 3
Расширение режима : CM (complete main)
Идентификатор кодека : A_AC3
Продолжительность : 1 ч. 40 м.
Вид битрейта : Постоянный
Битрейт : 224 Кбит/сек
Канал(ы) : 2 канала(ов)
Расположение каналов : Front: L R
Частота : 48,0 КГц
Битовая глубина : 16 бит
Метод сжатия : С потерями
Размер потока : 161 Мбайт (3%)
Заголовок : Комментарии режиссера
Язык : English

Текст #1
Идентификатор : 5
Формат : UTF-8
Идентификатор кодека : S_TEXT/UTF8
Идентификатор кодека/Информация : UTF-8 Plain Text
Заголовок : Форсированные
Язык : Russian

Текст #2
Идентификатор : 6
Формат : UTF-8
Идентификатор кодека : S_TEXT/UTF8
Идентификатор кодека/Информация : UTF-8 Plain Text
Заголовок : Полные
Язык : Russian

Текст #3
Идентификатор : 7
Формат : UTF-8
Идентификатор кодека : S_TEXT/UTF8
Идентификатор кодека/Информация : UTF-8 Plain Text
Заголовок : SDH
Язык : English

Текст #4
Идентификатор : 8
Формат : UTF-8
Идентификатор кодека : S_TEXT/UTF8
Идентификатор кодека/Информация : UTF-8 Plain Text
Заголовок : На комментарии режиссера
Язык : Russian

Меню
00:00:00.000 : en:Main Titles/ Opposites
00:03:16.363 : en:Life of the Party
00:05:30.872 : en:Big Surprise
00:07:28.657 : en:"Vegas!"
00:09:40.288 : en:Reservation Glitch
00:11:38.323 : en:Watch and Learn
00:13:15.712 : en:What Happens In Vegas
00:17:45.022 : en:Disaster Averted
00:23:01.672 : en:What's Yours Is Ours
00:24:32.888 : en:Six Month Sentence
00:28:24.161 : en:Day One
00:31:53.912 : en:Bathroom Blues
00:35:00.432 : en:Counseling Session
00:39:30.410 : en:Plan B
00:48:44.839 : en:Happy Couple
00:51:48.522 : en:Subterfuge
00:56:26.425 : en:The In-Laws
01:01:12.627 : en:Family Picnic
01:05:49.612 : en:Company Retreat
01:11:03.301 : en:First Dance
01:17:23.848 : en:A Great Day
01:21:53.617 : en:Final Decree
01:28:53.828 : en:Jackpot
01:34:40.633 : en:Six Months Earlier/ End Titles
[/code]]
Свернуть
Скриншоты
Изображение
Изображение
Изображение
Изображение
Изображение
Свернуть


Последний раз редактировалось STASSSSSS 2011-07-27 14:50, всего редактировалось 2 раз(а).
Не в сети
Профиль  
Начать новую темуОтветить на тему  [ 1 сообщение ] 
Вы не можете начинать темы
Вы не можете отвечать на сообщения
Вы не можете редактировать свои сообщения
Вы не можете удалять свои сообщения