Правила форума

  • В этом разделе создание новых тем Запрещено.
  • Для создания новых тем пользуйтесь Корневым разделом DVD и HD фильмы.
Начать новую темуОтветить на тему  [ 1 сообщение ] 
Торрент файл
Размер: 8.18 GB • Зарегистрирован: 3 года 2 месяца • Статус: Проверено
Скачан: 70 раз • Желающих скачать: 0 • Поблагодарили: 28 раз
 Раздают: 0  |  0 KB/s  ]   Качают: 0  |  0 KB/s  ] 
 Полного источника не было 1 год 5 месяцев 
Сообщения
 Добавлено: 2013-09-08 13:36
Top-releaser
Аватара пользователя
Стаж: 8 лет 9 месяцев
Сообщений: 479
Спасибок: 20187
Лайков: 16
Изображение

Одним меньше

Dead Man Down


«Время собирать камни»

Год выпуска: 2013
Страна: Изображение США; Automatik Entertainment, Frequency Films, IM Global, Original Film, WWE Studios
Жанр: Триллер, драма, криминал, боевик
Продолжительность: 01:57:47
Перевод: Профессиональный (дублированный) [Лицензия], Авторский (А.Ю. Гаврилов), Оригинал
Субтитры: Русские, английские, румынские

Режиссёр: Нильс Арден Оплев / Niels Arden Oplev

В ролях: Колин Фаррелл, Нуми Рапас, Доминик Купер, Терренс Ховард, Изабель Юппер, Арманд Ассанте, Ро Лейба, Дженнифер Винер, Рэймонд Мамрак, Фрэнки Джи

Описание: История человека по имени Виктор, он правая рука лидера преступной группировки из Нью-Йорка. Виктор неспроста оказался в криминальном синдикате: мафия уничтожила его семью, поэтому он хочет отомстить. Об этом узнает загадочная Беатрис, соблазняет его и шантажирует. Однако у героев только одна цель в жизни — месть. И она приведет их к кровавой развязке.


Качество: BDRip 720p R5
Формат: MKV

Видео: AVC at 6666 Кбит/сек, 1280 x 534 (2.397) at 23.976 fps

Аудио 1: AC-3 at 256 Кбит/сек, 6 канала(ов), 48,0 КГц [Дубляж]
Аудио 2: DTS at 1510 Кбит/сек, 6 канала(ов), 48,0 КГц [А.Ю. Гаврилов]
Аудио 3: DTS at 1510 Кбит/сек, 6 канала(ов), 48,0 КГц [Оригинал]
Раздача: Изображение

Изображение
MediaInfo

Общее
Уникальный идентификатор : 178419546024481506613930992656940982223 (0x863A5AC9603BB9EFA82D9A79292ADFCF)
Полное имя : C:\Users\Домашний\Desktop\Dead.Man.Down.2013.720p.[nntt].mkv
Формат : Matroska
Размер файла : 8,18 Гбайт
Продолжительность : 1 ч. 57 м.
Общий поток : 9942 Кбит/сек
Название фильма : Dead.Man.Down.2013.BDRip.720p.NNM-CLUB.GIU
Дата кодирования : UTC 2013-09-07 10:31:20
Программа кодирования : mkvmerge v6.3.0 ('You can't stop me!') built on Jun 28 2013 20:09:41
Библиотека кодирования : libebml v1.3.0 + libmatroska v1.4.0

Видео
Идентификатор : 1
Формат : AVC
Формат/Информация : Advanced Video Codec
Профиль формата : High@L4.1
Параметр CABAC формата : Да
Параметр ReFrames формата : 12 кадры
Идентификатор кодека : V_MPEG4/ISO/AVC
Продолжительность : 1 ч. 57 м.
Битрейт : 6666 Кбит/сек
Ширина : 1280 пикс.
Высота : 534 пикс.
Соотношение сторон : 2,35:1
Частота кадров : 23,976 кадр/сек
Цветовое пространство : YUV
Подвыборка цветности : 4:2:0
Битовая глубина : 8 бит
Тип развёртки : Прогрессивная
Бит/(Пиксели*Кадры) : 0.407
Размер потока : 5,32 Гбайт (65%)
Библиотека кодирования : x264 core 133 r2334 a3ac64b
Настройки программы : cabac=1 / ref=12 / deblock=1:-3:-3 / analyse=0x3:0x133 / me=umh / subme=11 / psy=1 / psy_rd=1.00:0.50 / mixed_ref=1 / me_range=48 / chroma_me=1 / trellis=2 / 8x8dct=1 / cqm=0 / deadzone=21,11 / fast_pskip=1 / chroma_qp_offset=-4 / threads=12 / lookahead_threads=2 / sliced_threads=0 / nr=0 / decimate=1 / interlaced=0 / bluray_compat=0 / constrained_intra=0 / bframes=8 / b_pyramid=2 / b_adapt=2 / b_bias=0 / direct=3 / weightb=1 / open_gop=0 / weightp=2 / keyint=240 / keyint_min=23 / scenecut=40 / intra_refresh=0 / rc_lookahead=40 / rc=2pass / mbtree=1 / bitrate=6666 / ratetol=1.0 / qcomp=0.80 / qpmin=5 / qpmax=51 / qpstep=4 / cplxblur=20.0 / qblur=0.5 / ip_ratio=1.40 / aq=1:1.00
Язык : English

Аудио #1
Идентификатор : 2
Формат : AC-3
Формат/Информация : Audio Coding 3
Расширение режима : CM (complete main)
Идентификатор кодека : A_AC3
Продолжительность : 1 ч. 57 м.
Вид битрейта : Постоянный
Битрейт : 256 Кбит/сек
Канал(ы) : 6 канала(ов)
Расположение каналов : Front: L C R, Side: L R, LFE
Частота : 48,0 КГц
Битовая глубина : 16 бит
Метод сжатия : С потерями
Размер потока : 216 Мбайт (3%)
Язык : Russian

Аудио #2
Идентификатор : 3
Формат : DTS
Формат/Информация : Digital Theater Systems
Идентификатор кодека : A_DTS
Продолжительность : 1 ч. 57 м.
Вид битрейта : Постоянный
Битрейт : 1510 Кбит/сек
Канал(ы) : 6 канала(ов)
Расположение каналов : Front: L C R, Side: L R, LFE
Частота : 48,0 КГц
Битовая глубина : 24 бит
Метод сжатия : С потерями
Размер потока : 1,24 Гбайт (15%)
Язык : Russian

Аудио #3
Идентификатор : 4
Формат : DTS
Формат/Информация : Digital Theater Systems
Идентификатор кодека : A_DTS
Продолжительность : 1 ч. 57 м.
Вид битрейта : Постоянный
Битрейт : 1510 Кбит/сек
Канал(ы) : 6 канала(ов)
Расположение каналов : Front: L C R, Side: L R, LFE
Частота : 48,0 КГц
Битовая глубина : 24 бит
Метод сжатия : С потерями
Размер потока : 1,24 Гбайт (15%)
Язык : English

Текст #1
Идентификатор : 5
Формат : UTF-8
Идентификатор кодека : S_TEXT/UTF8
Идентификатор кодека/Информация : UTF-8 Plain Text
Язык : Russian

Текст #2
Идентификатор : 6
Формат : UTF-8
Идентификатор кодека : S_TEXT/UTF8
Идентификатор кодека/Информация : UTF-8 Plain Text
Язык : Romanian

Текст #3
Идентификатор : 7
Формат : UTF-8
Идентификатор кодека : S_TEXT/UTF8
Идентификатор кодека/Информация : UTF-8 Plain Text
Язык : English

Меню
00:00:00.000 : en:00:00:00.000
00:11:40.950 : en:00:11:40.950
00:16:48.591 : en:00:16:48.591
00:25:18.642 : en:00:25:18.642
00:30:38.628 : en:00:30:38.628
00:36:37.779 : en:00:36:37.779
00:41:19.811 : en:00:41:19.811
00:46:36.669 : en:00:46:36.669
00:55:52.516 : en:00:55:52.516
01:03:13.206 : en:01:03:13.206
01:12:09.033 : en:01:12:09.033
01:18:25.034 : en:01:18:25.034
01:24:07.042 : en:01:24:07.042
01:31:35.865 : en:01:31:35.865
01:36:36.165 : en:01:36:36.165
01:42:52.416 : en:01:42:52.416


Свернуть
Скриншоты

Изображение
Изображение
Изображение
Изображение
Изображение
Свернуть
_________________
Изображение
Изображение
Не в сети
Профиль  
Начать новую темуОтветить на тему  [ 1 сообщение ] 
Вы не можете начинать темы
Вы не можете отвечать на сообщения
Вы не можете редактировать свои сообщения
Вы не можете удалять свои сообщения