Правила форума

  • В этом разделе создание новых тем Запрещено.
  • Для создания новых тем пользуйтесь Корневым разделом DVD и HD фильмы.
Начать новую темуОтветить на тему  [ Сообщений: 2 ] 
Торрент файл
Размер: 4.74 GB • Зарегистрирован: 4 года 11 месяцев • Статус: Проверено
Скачан: 69 раз • Желающих скачать: 0 • Поблагодарили: 8 раз
 Раздают: 0  |  0 KB/s  ]   Качают: 0  |  0 KB/s  ] 
 Полного источника не было 3 часа 
Сообщения
 Добавлено: 2011-12-21 06:31
Аватара пользователя
Стаж: 4 года 11 месяцев
Сообщений: 24
Спасибок: 356
Огнеупорный / Fireproof


Изображение



Год выхода: 2008
Страна: США

Жанр: Драма
Продолжительность: 01:58:19
Перевод: Профессиональный (двухголосый)

Режиссер: Алекс Кендрик
Сценарий: Алекс Кендрик, Стефен Кендрик
Продюсер: Алекс Кендрик, Стефен Кендрик, Michael Catt, ...
Оператор: Боб Скотт
Композитор: Марк Уиллард

В ролях: Кирк Камерон, Эрин Бети, Кен Бевел, Блэйк Бэйли, Энтони Браун, Уолтер Барнетт, Бэйли Кейв, Джанет Ли Дэппер, Эллисон Даусон, Стефан Дерван

Описание: Заходя в горящий дом, капитан Калеб Холт действует по-старому правилу пожарных: «Никогда не оставляй товарища в беде». Приходя домой, где его ждёт жена, чувства к которой давно угасло, он живёт по своим собственным правилам. На работе Калеб всегда спасает других, но как ему спасти свой брак?

Изображение

Pаздача группы:Изображение

Качество: BDRip
Формат: AVC
Видео:MPEG-4 AVC, 4530 Kбит/с, 1280x688, 23.976 fps
Аудио 1: Dolby AC3 48000Hz 6ch 448 Kbps
Аудио 2: Dolby AC3 48000Hz 6ch 640 Kbps


MediaInfo
General
Unique ID : 241199400341100822668561347526168820590 (0xB5755094AB66BB15B07023895F863B6E)
Complete name : E:\Download\Ogneuporniy.2008.x264.BDRip-kinozal.tv-HD.mkv
Format : Matroska
Format version : Version 2
File size : 4.74 GiB
Duration : 1h 58mn
Overall bit rate : 5 732 Kbps
Movie name : =kinozal.tv-HD=
Encoded date : UTC 2009-09-30 09:45:02
Writing application : mkvmerge v2.9.5 ('Tu es le seul') built on Jun 7 2009 11:07:07
Writing library : libebml v0.7.7 + libmatroska v0.8.1

Video
ID : 1
Format : AVC
Format/Info : Advanced Video Codec
Format profile : High@L4.1
Format settings, CABAC : Yes
Format settings, ReFrames : 5 frames
Codec ID : V_MPEG4/ISO/AVC
Duration : 1h 58mn
Bit rate : 4 643 Kbps
Width : 1 280 pixels
Height : 688 pixels
Display aspect ratio : 1.860
Frame rate : 23.976 fps
Color space : YUV
Chroma subsampling : 4:2:0
Bit depth : 8 bits
Scan type : Progressive
Bits/(Pixel*Frame) : 0.220
Stream size : 3.74 GiB (79%)
Writing library : x264 core 76 r1271 496d79d
Encoding settings : cabac=1 / ref=5 / deblock=1:0:0 / analyse=0x3:0x133 / me=umh / subme=7 / psy=1 / psy_rd=1.0:0.0 / mixed_ref=1 / me_range=16 / chroma_me=1 / trellis=1 / 8x8dct=1 / cqm=0 / deadzone=21,11 / chroma_qp_offset=-2 / threads=6 / nr=0 / decimate=1 / mbaff=0 / bframes=3 / b_pyramid=0 / b_adapt=2 / b_bias=0 / direct=1 / wpredb=1 / keyint=250 / keyint_min=25 / scenecut=40 / rc_lookahead=40 / rc=2pass / mbtree=1 / bitrate=4643 / ratetol=1.0 / qcomp=0.60 / qpmin=10 / qpmax=51 / qpstep=4 / cplxblur=20.0 / qblur=0.5 / ip_ratio=1.40 / aq=1:1.00
Language : English
Default : Yes
Forced : No

Audio #1
ID : 2
Format : AC-3
Format/Info : Audio Coding 3
Mode extension : CM (complete main)
Codec ID : A_AC3
Duration : 1h 58mn
Bit rate mode : Constant
Bit rate : 448 Kbps
Channel(s) : 6 channels
Channel positions : Front: L C R, Side: L R, LFE
Sampling rate : 48.0 KHz
Bit depth : 16 bits
Compression mode : Lossy
Delay relative to video : 16ms
Stream size : 379 MiB (8%)
Language : Russian
Default : Yes
Forced : No

Audio #2
ID : 3
Format : AC-3
Format/Info : Audio Coding 3
Mode extension : CM (complete main)
Codec ID : A_AC3
Duration : 1h 58mn
Bit rate mode : Constant
Bit rate : 640 Kbps
Channel(s) : 6 channels
Channel positions : Front: L C R, Side: L R, LFE
Sampling rate : 48.0 KHz
Bit depth : 16 bits
Compression mode : Lossy
Stream size : 542 MiB (11%)
Language : English
Default : No
Forced : No

Text
ID : 4
Format : UTF-8
Codec ID : S_TEXT/UTF8
Codec ID/Info : UTF-8 Plain Text
Language : English
Default : Yes
Forced : No


Свернуть
Скриншоты
Изображение
Изображение
Изображение
Изображение
Изображение
Свернуть
Не в сети
Профиль  
 Добавлено: 2011-12-31 16:25 (спустя 10 дней)
Стаж: 8 лет 1 месяц
Сообщений: 6
Спасибок: 1
Кто давно не получал библией по башке, рекомендую.
Не в сети
Профиль  
Начать новую темуОтветить на тему  [ Сообщений: 2 ] 
Вы не можете начинать темы
Вы не можете отвечать на сообщения
Вы не можете редактировать свои сообщения
Вы не можете удалять свои сообщения