Правила форума

  • В этом разделе создание новых тем Запрещено.
  • Для создания новых тем пользуйтесь Корневым разделом DVD и HD фильмы.
Начать новую темуОтветить на тему  [ Сообщений: 2 ] 
Торрент файл
Размер: 12.62 GB • Зарегистрирован: 5 лет 2 месяца • Статус: Проверено
Скачан: 22 раза • Желающих скачать: 0 • Поблагодарили: 4 раза
 Раздают: 0  |  0 KB/s  ]   Качают: 0  |  0 KB/s  ] 
 Полного источника не было 11 месяцев 
Сообщения
 Добавлено: 2011-09-19 20:07
Модератор релиз-группы
Аватара пользователя
Стаж: 9 лет 1 месяц
Возраст: 97
Сообщений: 11660
Спасибок: 6533
Лайков: 269
Ох уж эта наука! / Чудеса науки / Weird Science

Изображение


Страна: США
Студия: Universal Pictures
Жанр: Фэнтези, Мелодрама, Комедия
Год выпуска: 1985
Продолжительность: 01:33:23

Перевод : Профессиональный (многоголосый закадровый) Universal Russia
Профессиональный (дублированный) Шестой канал / СТС
Профессиональный (двухголосый закадровый) НТВ+
Авторский (одноголосый закадровый) Андрей Гаврилов
Любительский (одноголосый закадровый) Диктор CDV
Оригинальная звуковая дорожка
Cубтитры: английские


Режиссер: Джон Хьюз / John Hughes

В ролях: Энтони Майкл Холл / Anthony Michael Hall, Келли ЛеБрок / Kelly LeBrock, Илан Митчелл-Смит / Ilan Mitchell-Smith, Билл Пэкстон / Bill Paxton, Сюзанн Снайдер / Suzanne Snyder, Джуди Аронсон / Judie Aronson, Роберт Дауни мл. / Robert Downey Jr., Роберт Раслер / Robert Rusler, Вернон Уэллс / Vernon Wells, Бритт Лич / Britt Leach

Описание: Вариант легенды о Франкештейне в этой вызывающей комедии. Наивный вундеркинд и его друг создают «идеальную женщину». Их создание - прекрасная женщина помогает им пройти через все испытания юности.
Изображение
Качество: HDTV 1080i
Формат: MKV
Видео: MPEG2, 1920x1080, NTSC, 29.970 fps, 17100 Kbps
Аудио 1: Русский / Многоголосый (Universal Russia), Dolby AC3, 6 ch, 48000Hz, 448 Kbps
Аудио 2: Русский / Дублированный (Шестой канал / СТС), Dolby AC3, 2 ch, 48000Hz, 192 Kbps
Аудио 3: Русский / Двухголосый (НТВ+), Dolby AC3, 2 ch, 48000Hz, 192 Kbps
Аудио 4: Русский / Одноголосый (А. Гаврилов), Dolby AC3, 6 ch, 48000Hz, 448 Kbps
Аудио 5: Русский / Одноголосый (Диктор CDV), Dolby AC3, 2 ch, 48000Hz, 192 Kbps
Аудио 6: English / Оригинал, Dolby AC3, 6 ch, 48000Hz, 384 Kbps
скриншоты
Изображение

Изображение

Изображение

Изображение

Изображение
Свернуть
Mi
Формат : Matroska
Версия формата : Version 1
Размер файла : 12,6 Гбайт
Продолжительность : 1 ч. 33 м.
Общий поток : 19,3 Мбит/сек
Название фильма : Weird Science (1985) HDTVRip 720p
Дата кодирования : UTC 2011-09-17 03:52:03
Программа кодирования : mkvmerge v2.2.0 ('Turn It On Again') built on Mar 4 2008 12:58:26
Библиотека кодирования : libebml v0.7.7 + libmatroska v0.8.1

Видео
Идентификатор : 1
Формат : MPEG Video
Версия формата : Version 2
Профиль формата : Main@High
Параметр BVOP формата : Нет
Параметр матрицы формата : Выборочная
Идентификатор кодека : V_MPEG2
Идентификатор кодека/Информация : MPEG 1 or 2 Video
Продолжительность : 1 ч. 33 м.
Вид битрейта : Переменный
Битрейт : 17,1 Мбит/сек
Максимальный битрейт : 80,0 Мбит/сек
Ширина : 1920 пикс.
Высота : 1080 пикс.
Соотношение сторон : 16:9
Частота кадров : 29,970 кадр/сек
Цветовое пространство : YUV
Подвыборка цветности : 4:2:0
Битовая глубина : 8 бит
Тип развёртки : Чересстрочная
Порядок развёртки : Верхнее поле первое
Метод сжатия : С потерями
Бит/(Пиксели*Кадры) : 0.275
Размер потока : 11,2 Гбайт (88%)
Заголовок : Weird Science (1985) HDTV 1080i
Язык : English

Аудио #1
Идентификатор : 2
Формат : AC-3
Формат/Информация : Audio Coding 3
Расширение режима : CM (complete main)
Идентификатор кодека : A_AC3
Продолжительность : 1 ч. 33 м.
Вид битрейта : Постоянный
Битрейт : 448 Кбит/сек
Каналы : 6 каналов
Расположение каналов : Front: L C R, Side: L R, LFE
Частота : 48,0 КГц
Битовая глубина : 16 бит
Метод сжатия : С потерями
Задержка видео : 12 мс.
Размер потока : 299 Мбайт (2%)
Заголовок : Universal
Язык : Russian

Аудио #2
Идентификатор : 3
Формат : AC-3
Формат/Информация : Audio Coding 3
Расширение режима : CM (complete main)
Идентификатор кодека : A_AC3
Продолжительность : 1 ч. 33 м.
Вид битрейта : Постоянный
Битрейт : 192 Кбит/сек
Каналы : 2 канала
Расположение каналов : Front: L R
Частота : 48,0 КГц
Битовая глубина : 16 бит
Метод сжатия : С потерями
Задержка видео : 12 мс.
Размер потока : 128 Мбайт (1%)
Заголовок : Дубляж
Язык : Russian

Аудио #3
Идентификатор : 4
Формат : AC-3
Формат/Информация : Audio Coding 3
Расширение режима : CM (complete main)
Идентификатор кодека : A_AC3
Продолжительность : 1 ч. 33 м.
Вид битрейта : Постоянный
Битрейт : 192 Кбит/сек
Каналы : 2 канала
Расположение каналов : Front: L R
Частота : 48,0 КГц
Битовая глубина : 16 бит
Метод сжатия : С потерями
Задержка видео : 12 мс.
Размер потока : 128 Мбайт (1%)
Заголовок : НТВ+
Язык : Russian

Аудио #4
Идентификатор : 5
Формат : AC-3
Формат/Информация : Audio Coding 3
Расширение режима : CM (complete main)
Идентификатор кодека : A_AC3
Продолжительность : 1 ч. 33 м.
Вид битрейта : Постоянный
Битрейт : 448 Кбит/сек
Каналы : 6 каналов
Расположение каналов : Front: L C R, Side: L R, LFE
Частота : 48,0 КГц
Битовая глубина : 16 бит
Метод сжатия : С потерями
Задержка видео : 12 мс.
Размер потока : 299 Мбайт (2%)
Заголовок : Гаврилов
Язык : Russian

Аудио #5
Идентификатор : 6
Формат : AC-3
Формат/Информация : Audio Coding 3
Расширение режима : CM (complete main)
Идентификатор кодека : A_AC3
Продолжительность : 1 ч. 33 м.
Вид битрейта : Постоянный
Битрейт : 192 Кбит/сек
Каналы : 2 канала
Расположение каналов : Front: L R
Частота : 48,0 КГц
Битовая глубина : 16 бит
Метод сжатия : С потерями
Задержка видео : 12 мс.
Размер потока : 128 Мбайт (1%)
Заголовок : Диктор CDV
Язык : Russian

Аудио #6
Идентификатор : 7
Формат : AC-3
Формат/Информация : Audio Coding 3
Расширение режима : CM (complete main)
Идентификатор кодека : A_AC3
Продолжительность : 1 ч. 33 м.
Вид битрейта : Постоянный
Битрейт : 384 Кбит/сек
Каналы : 6 каналов
Расположение каналов : Front: L C R, Side: L R, LFE
Частота : 48,0 КГц
Битовая глубина : 16 бит
Метод сжатия : С потерями
Задержка видео : 12 мс.
Размер потока : 256 Мбайт (2%)
Заголовок : Original
Язык : English
Свернуть
_________________
Изображение
Не в сети
Профиль  
 Добавлено: 2011-09-25 22:51 (спустя 6 дней)
Аватара пользователя
Стаж: 7 лет 8 месяцев
Сообщений: 933
Лайков: 50
Сиськи покажут?
Не в сети
Профиль  
Начать новую темуОтветить на тему  [ Сообщений: 2 ] 
Вы не можете начинать темы
Вы не можете отвечать на сообщения
Вы не можете редактировать свои сообщения
Вы не можете удалять свои сообщения