Правила форума

  • В этом разделе создание новых тем Запрещено.
  • Для создания новых тем пользуйтесь Корневым разделом DVD и HD фильмы.
Начать новую темуОтветить на тему  [ Сообщений: 6 ] 
Торрент файл
Размер: 8.97 GB • Зарегистрирован: 3 года 8 месяцев • Статус: Проверено
Скачан: 140 раз • Желающих скачать: 0 • Поблагодарили: 34 раза
 Раздают: 0  |  0 KB/s  ]   Качают: 0  |  0 KB/s  ] 
 Полного источника не было 1 день 7 часов 
Сообщения
 Добавлено: 2013-03-28 00:33
Аватара пользователя
Стаж: 5 лет 4 месяца
Возраст: 26
Сообщений: 1658
Спасибок: 45808
Лайков: 69
Охота / Jagten


«Мелкая ложь!»


Изображение
Год выпуска: 2012
Страна: Изображение
Жанр: Драма
Продолжительность: 01:55:28
Перевод: Профессиональный (многоголосый, закадровый) (Лицензия)

Режиссёр: Томас Винтерберг

Сценарий: Тобиас Линдхольм, Томас Винтерберг

Продюсер: Сиссе Граум Олсен, Мортен Кауфман, Томас Винтерберг.

Оператор: Николай Эгелунд

Композитор: Шарлотта Брюус Кристенсен

Xудожник: Торбен Стиг Нилсен, Манон Расмуссен, Расмус Балслев-Олесен

В ролях: Мадс Миккелсен, Томас Бо Ларсен , Анника Веддеркопп, Лассе Фогельстрём, Суссе Уолд, Анне Луизе Хассинг, Ларс Ранте, Александра Рапапорт, Оле Дюпон, Рикке Бергманн.


Описание: После мучительного развода 40-летний Лукас находит новую подругу, новую работу и стремится восстановить отношения со своим сыном-подростком Маркусом. Но ему что-то мешает… Что-то, казалось бы, незначительное. Замечание, сделанное между прочим. И вот накануне Рождества, когда падает снег и зажигаются огни на елке, ложь разрастается и проникает повсюду, как невидимый вирус. Растет недоверие, и все вокруг оказываются в состоянии коллективной истерии. Лукас вынужден бороться за свою жизнь и достоинство.


Изображение



Бюджет: $3 800 000
Сборы в России: $22 149

Мировая премьера:20 мая 2012.
Российский прокат:21 февраля 2013, «Русский репортаж»

Релиз на DVD:1 апреля 2013, «Новый Диск».
Релиз на Blu-Ray:1 апреля 2013, «Новый Диск».

Качество: BDRip (1080p)
Формат: MKV
Видео: MPEG4, 9162 Кбит/сек, 1920x816
Аудио: Русский (AC3, 6 ch, 448 Кбит/с), датский (DTS, 6 ch, 1536 Кбит/с)




MediaInfo
Общее
Уникальный идентификатор : 181621605596221082082707159021095262724 (0x88A30C832C5A8DC6BD2D8B6A56609A04)
Полное имя : D:\Фильмы и сериалы\Jagten 2012 1080p.mkv
Формат : Matroska
Версия формата : Version 4 / Version 2
Размер файла : 8,97 Гбайт
Продолжительность : 1 ч. 55 м.
Общий поток : 11,1 Мбит/сек
Дата кодирования : UTC 2013-03-27 03:25:03
Программа кодирования : mkvmerge v6.1.0 ('Old Devil') built on Mar 2 2013 14:32:37
Библиотека кодирования : libebml v1.3.0 + libmatroska v1.4.0

Видео
Идентификатор : 1
Формат : AVC
Формат/Информация : Advanced Video Codec
Профиль формата : High@L4.1
Параметр CABAC формата : Да
Параметр ReFrames формата : 5 кадров
Идентификатор кодека : V_MPEG4/ISO/AVC
Продолжительность : 1 ч. 55 м.
Битрейт : 9162 Кбит/сек
Ширина : 1920 пикселей
Высота : 816 пикселей
Соотношение сторон : 2,35:1
Режим частоты кадров : Постоянный
Частота кадров : 24,000 кадра/сек
Цветовое пространство : YUV
Субдискретизация насыщенности : 4:2:0
Битовая глубина : 8 бит
Тип развёртки : Прогрессивная
Бит/(Пиксели*Кадры) : 0.244
Размер потока : 7,21 Гбайт (80%)
Заголовок : CMBHD - La chasse 2012 - 1080p
Библиотека кодирования : x264 core 130 r2273 b3065e6
Настройки программы : cabac=1 / ref=5 / deblock=1:0:0 / analyse=0x3:0x133 / me=umh / subme=7 / psy=1 / psy_rd=1.00:0.00 / mixed_ref=1 / me_range=16 / chroma_me=1 / trellis=1 / 8x8dct=1 / cqm=0 / deadzone=21,11 / fast_pskip=0 / chroma_qp_offset=-2 / threads=12 / lookahead_threads=2 / sliced_threads=0 / nr=0 / decimate=1 / interlaced=0 / bluray_compat=0 / constrained_intra=0 / bframes=3 / b_pyramid=2 / b_adapt=1 / b_bias=0 / direct=1 / weightb=1 / open_gop=0 / weightp=2 / keyint=240 / keyint_min=24 / scenecut=40 / intra_refresh=0 / rc_lookahead=40 / rc=2pass / mbtree=1 / bitrate=9162 / ratetol=1.0 / qcomp=0.60 / qpmin=10 / qpmax=69 / qpstep=4 / cplxblur=20.0 / qblur=0.5 / ip_ratio=1.40 / aq=1:1.00
Язык : Danish
Default : Да
Forced : Нет

Аудио #1
Идентификатор : 2
Формат : AC-3
Формат/Информация : Audio Coding 3
Расширение режима : CM (complete main)
Параметр Endianness формата : Big
Идентификатор кодека : A_AC3
Продолжительность : 1 ч. 55 м.
Вид битрейта : Постоянный
Битрейт : 448 Кбит/сек
Каналы : 6 каналов
Расположение каналов : Front: L C R, Side: L R, LFE
Частота : 48,0 КГц
Битовая глубина : 16 бит
Метод сжатия : С потерями
Размер потока : 370 Мбайт (4%)
Default : Да
Forced : Нет

Аудио #2
Идентификатор : 3
Формат : DTS
Формат/Информация : Digital Theater Systems
Режим : 16
Параметр Endianness формата : Big
Идентификатор кодека : A_DTS
Продолжительность : 1 ч. 55 м.
Вид битрейта : Постоянный
Битрейт : 1509 Кбит/сек
Каналы : 6 каналов
Расположение каналов : Front: L C R, Side: L R, LFE
Частота : 48,0 КГц
Битовая глубина : 16 бит
Метод сжатия : С потерями
Размер потока : 1,22 Гбайт (14%)
Заголовок : DK-DTS 1510kbps
Язык : Danish
Default : Нет
Forced : Нет

Текст #1
Идентификатор : 4
Формат : UTF-8
Идентификатор кодека : S_TEXT/UTF8
Идентификатор кодека/Информация : UTF-8 Plain Text
Заголовок : FR Forced
Язык : French
Default : Нет
Forced : Нет

Текст #2
Идентификатор : 5
Формат : UTF-8
Идентификатор кодека : S_TEXT/UTF8
Идентификатор кодека/Информация : UTF-8 Plain Text
Заголовок : French
Язык : French
Default : Нет
Forced : Нет


Свернуть

Трейлер
Свернуть

Скриншоты
Изображение
Изображение
Изображение
Свернуть
_________________
S.T.A.L.K.E.R.: Lost Alpha
Не в сети
Профиль  
 Добавлено: 2013-03-29 09:16 (спустя 1 день 8 часов)
Стаж: 8 лет 1 месяц
Сообщений: 25
Спасибок: 1
всем привет как фильм то отпишитесь стоит качать?
Не в сети
Профиль  
 Добавлено: 2013-03-29 20:36 (спустя 11 часов)
Кинокомментатор
Аватара пользователя
Стаж: 8 лет 1 месяц
Сообщений: 1325
Спасибок: 794
Лайков: 35
"Люди-то у нас хорошие... У нас народ - говно".
Видимо, группа людей - быдло, не только в Росее...

Здорово старуха подогрела "у нас есть основания полагать, что один из дете стал объектом сексуального насилия"... Без суда и следствия - Педофил.
Если так можно в Росее будет говорить - скоро учить наших детешкаф будут кастраты и старые девы, ненавидящие секас...
Бля, хотя насчёт последних - так оно и есть...

Фильм пра тупое быдла :men:
Не в сети
Профиль  
 Добавлено: 2013-03-30 16:34 (спустя 19 часов)
Аватара пользователя
Стаж: 8 лет 9 месяцев
Сообщений: 1170
Спасибок: 1294
Лайков: 7
IldarA
в моем понимании кинокомментарий - полная противоположность подобной писанине.
Не в сети
Профиль  
 Добавлено: 2013-03-30 22:14 (спустя 5 часов)
Кинокомментатор
Аватара пользователя
Стаж: 8 лет 1 месяц
Сообщений: 1325
Спасибок: 794
Лайков: 35

Snork:

IldarA
в моем понимании кинокомментарий - полная противоположность подобной писанине.

в моём понимании твоё понимание - анализ производных кишечника после твоих коментариев "Меланхолии" и "Жизнь Пи". :)
Не в сети
Профиль  
 Добавлено: 2013-03-31 09:28 (спустя 11 часов)
Аватара пользователя
Стаж: 7 лет 8 месяцев
Сообщений: 206
Мутноватый фильм, но посмотреть разок можно...очень растянутый иногда можно уснуть. Да фантазии детей могут испортить человеку жизнь.
Не в сети
Профиль  
Начать новую темуОтветить на тему  [ Сообщений: 6 ] 
Вы не можете начинать темы
Вы не можете отвечать на сообщения
Вы не можете редактировать свои сообщения
Вы не можете удалять свои сообщения