Правила форума

  • В этом разделе создание новых тем Запрещено.
  • Для создания новых тем пользуйтесь Корневым разделом DVD и HD фильмы.
Начать новую темуОтветить на тему  [ 1 сообщение ] 
Торрент файл
Размер: 4.5 GB • Зарегистрирован: 4 года 5 месяцев • Статус: Проверено
Скачан: 10 раз • Желающих скачать: 0 • Поблагодарили: 3 раза
 Раздают: 0  |  0 KB/s  ]   Качают: 0  |  0 KB/s  ] 
 Полного источника не было 3 года 2 месяца 
Сообщения
 Добавлено: 2012-06-11 22:08
Книголюб
Аватара пользователя
Стаж: 7 лет 2 месяца
Сообщений: 2823
Спасибок: 48823
Лайков: 73
Охота ради убийства
Hunt to Kill

Изображение


Год выпуска: 2010
Страна: Канада
Слоган: «Vengeance belongs to one man.»
Жанр: боевик, триллер
Продолжительность: 01:33:09
Перевод: Профессиональный (многоголосый закадровый)

Режиссёр: Киони Ваксман
В ролях: Стив Остин, Мари Авгеропулос, Джил Беллоуз, Гэри Дэниелс, Майкл Эклунд, Виктор Формоса, Майкл Хоган, Адриан Холмс, Эрик Робертс, Эмили Уллерап
Описание: Джим Родс — агент патрульной службы, который провел большую часть карьеры, находясь на опасных участках границы Техаса и Мексики. Он переезжает в горы Монтаны, где, казалось бы, менее опасные границы между живописным штатом и Канадой. Жизнь в горах позволяет ему совершенствовать свои навыки выживания и наслаждаться жизнью и безопасностью со своей дочерью-подростком. Или так он думал?..
Рейтинг MPAA: Рейтинг R (Подростки до 17 лет допускаются на фильм только в сопровождении одного из родителей)
Мировая премьера: 11 октября 2010
Изображение 4.809 225

Качество:BdRip 720p
Формат: MKV
Видео кодек: H.264
Аудио кодек: AC3 (Dolby Digital)
Видео: 4928 kb/s, 1280x720 23.976fps 0.223Bits/Pixe
Аудио #1: Russian: AC3, 192 kb/s (2 ch)
Аудио #2: English: DTS, 1510 kb/s (6 ch)
MediaInfo
General
Unique ID : 174274390083066627588300603939510288488 (0x831C06D1E26058368FAA9F69AE280068)
Complete name : D:\00\Poymat.chtoby.Ubit..mkv
Format : Matroska
Format version : Version 2
File size : 4.50 GiB
Duration : 1h 37mn
Overall bit rate : 6 626 Kbps
Encoded date : UTC 2012-06-03 03:29:45
Writing application : mkvmerge v5.3.0 ('I could have danced') built on Mar 4 2012 19:18:32
Writing library : libebml v1.2.3 + libmatroska v1.3.0

Video
ID : 1
Format : AVC
Format/Info : Advanced Video Codec
Format profile : High@L4.1
Format settings, CABAC : Yes
Format settings, ReFrames : 5 frames
Muxing mode : Header stripping
Codec ID : V_MPEG4/ISO/AVC
Duration : 1h 37mn
Bit rate : 4 928 Kbps
Width : 1 280 pixels
Height : 720 pixels
Display aspect ratio : 16:9
Frame rate : 23.976 fps
Color space : YUV
Chroma subsampling : 4:2:0
Bit depth : 8 bits
Scan type : Progressive
Bits/(Pixel*Frame) : 0.223
Stream size : 3.25 GiB (72%)
Writing library : x264 core 105 r1724 b02df7b
Encoding settings : cabac=1 / ref=5 / deblock=1:0:0 / analyse=0x3:0x133 / me=umh / subme=7 / psy=1 / psy_rd=1.00:0.00 / mixed_ref=1 / me_range=16 / chroma_me=1 / trellis=1 / 8x8dct=1 / cqm=0 / deadzone=21,11 / fast_pskip=0 / chroma_qp_offset=-2 / threads=12 / sliced_threads=0 / nr=0 / decimate=1 / interlaced=0 / constrained_intra=0 / bframes=3 / b_pyramid=2 / b_adapt=1 / b_bias=0 / direct=1 / weightb=1 / open_gop=0 / weightp=2 / keyint=250 / keyint_min=23 / scenecut=40 / intra_refresh=0 / rc_lookahead=40 / rc=2pass / mbtree=1 / bitrate=4928 / ratetol=1.0 / qcomp=0.60 / qpmin=10 / qpmax=51 / qpstep=4 / cplxblur=20.0 / qblur=0.5 / ip_ratio=1.40 / aq=1:1.00
Language : English
Default : No
Forced : No

Audio #1
ID : 2
Format : AC-3
Format/Info : Audio Coding 3
Mode extension : CM (complete main)
Muxing mode : Header stripping
Codec ID : A_AC3
Duration : 1h 37mn
Bit rate mode : Constant
Bit rate : 192 Kbps
Channel(s) : 2 channels
Channel positions : Front: L R
Sampling rate : 48.0 KHz
Bit depth : 16 bits
Compression mode : Lossy
Stream size : 133 MiB (3%)
Language : Russian
Default : Yes
Forced : No

Audio #2
ID : 3
Format : DTS
Format/Info : Digital Theater Systems
Muxing mode : Header stripping
Codec ID : A_DTS
Duration : 1h 37mn
Bit rate mode : Constant
Bit rate : 1 510 Kbps
Channel(s) : 6 channels
Channel positions : Front: L C R, Side: L R, LFE
Sampling rate : 48.0 KHz
Bit depth : 24 bits
Compression mode : Lossy
Stream size : 1.02 GiB (23%)
Language : English
Default : No
Forced : No

Text
ID : 4
Format : UTF-8
Codec ID : S_TEXT/UTF8
Codec ID/Info : UTF-8 Plain Text
Language : English
Default : No
Forced : No


Свернуть

Скриншоты
Изображение
Изображение
Изображение
Изображение
Свернуть
Не в сети
Профиль  
Начать новую темуОтветить на тему  [ 1 сообщение ] 
Вы не можете начинать темы
Вы не можете отвечать на сообщения
Вы не можете редактировать свои сообщения
Вы не можете удалять свои сообщения