Правила форума

  • В этом разделе создание новых тем Запрещено.
  • Для создания новых тем пользуйтесь Корневым разделом DVD и HD фильмы.
Начать новую темуОтветить на тему  [ Сообщений: 4 ] 
Торрент файл
Размер: 11.92 GB • Зарегистрирован: 3 года 8 месяцев • Статус: Проверено
Скачан: 305 раз • Желающих скачать: 0 • Поблагодарили: 90 раз
 Раздают: 1  |  0 KB/s  ]   Качают: 0  |  0 KB/s  ] 
Сообщения
 Добавлено: 2013-04-08 20:51
Аватара пользователя
Стаж: 5 лет 4 месяца
Возраст: 26
Сообщений: 1658
Спасибок: 45809
Лайков: 69
Охотники на гангстеров / Gangster Squad


«Ни имён. Ни закона. Ни жалости.»


Изображение
Год выпуска: 2013
Страна: Изображение
Жанр: Боевик, триллер, драма, криминал
Продолжительность: 01:52:55
Перевод: Профессиональный (дубляж) (Лицензия)

Режиссёр: Рубен Флейшер

Сценарий: Уилл Билл, Пол Либерман

Продюсер: Дэн Лин, Кевин МакКормик, Майкл Тадросс, Рубен Флейшер, Брюс Берман

Оператор: Дион Биби

Композитор: Стив Яблонски

Xудожник: Мехер Ахмад, Марк Ханстэбл, Тимоти Дэвид О’Брайэн

В ролях: Джош Бролин , Райан Гослинг, Ник Нолти , Эмма Стоун , Роберт Патрик , Шон Пенн , Ник Нолти, Энтони Маки, Джованни Рибизи, Майкл Пенья, Холт МакКэллани, Уэйд Уильямс, Джеймс Хеберт, Эмбир Чилдерс, Брэндон Молале, Майкл Пападжон, Остин Хигсмит.


Описание: Лос-Анджелес, 1949 год. Уроженец Бруклина, жестокий главарь банды Микки Коэн держит город в ежовых рукавицах, собирая «грязные» деньги от торговли наркотиками, оружием и проституции, и — если все пойдет, как надо, — к Западу от Чикаго мышь не пискнет без его ведома. Защищают его не только его же головорезы, но и находящиеся у него «на крючке» полиция и политики. Этого хватит, чтобы запугать даже самых смелых, закаленных улицей копов… кроме, пожалуй, небольшой тайной группы сотрудников полицейского департамента Лос-Анджелеса во главе с сержантом Джоном О’Мара и Джерри Вутерсом, которые объединились, чтобы попытаться уничтожить преступный мир Коэна.


Изображение



Бюджет: $60 000 000
Сборы в США: $46 000 903
Сборы в Мире: $99 200 903
Сборы в России: $4 171 579

Мировая премьера:9 января 2013.
Российский прокат:24 января 2013, «Каро-Премьер»

Релиз на DVD:30 апреля 2013, «CP Дистрибуция».
Релиз на Blu-Ray:30 апреля 2013, «CP Дистрибуция».

Качество: BDRip (1080p)
Формат: MKV
Видео: MPEG-4 AVC, 12,9 Мбит/с, 1920x800, 23.976 кадр/с
Аудио: Русский (AC3, 6 ch, 384 Кбит/с), английский (DTS, 6 ch, 1510 Кбит/с), (Vorbis, 2 ch, 52 Кбит/с)
Субтитры: Русские, английские, французские, испанские, португальские


MediaInfo
Общее
Уникальный идентификатор : 212677775549730272879901508016976701809 (0xA0003FE8A6193821BD27DCF0866C2971)
Полное имя : D:\Фильмы и сериалы\Ohotniki.Gangsterov.2013.BDRip.(1080p).mkv
Формат : Matroska
Версия формата : Version 2
Размер файла : 11,9 Гбайт
Продолжительность : 1 ч. 52 м.
Режим общего битрейта : Переменный
Общий поток : 15,1 Мбит/сек
Название фильма : |◄◄| ιι |Alexandr 80| ► | ■ |►►|
Дата кодирования : UTC 2013-04-08 03:56:15
Программа кодирования : mkvmerge v4.3.0 ('Escape from the Island') сборка от Sep 5 2010 10:30:51
Библиотека кодирования : libebml v1.0.0 + libmatroska v1.0.0

Видео
Идентификатор : 1
Формат : AVC
Формат/Информация : Advanced Video Codec
Профиль формата : High@L4.1
Параметр CABAC формата : Да
Параметр ReFrames формата : 5 кадров
Идентификатор кодека : V_MPEG4/ISO/AVC
Продолжительность : 1 ч. 52 м.
Битрейт : 12,9 Мбит/сек
Ширина : 1920 пикселей
Высота : 800 пикселей
Соотношение сторон : 2,40:1
Режим частоты кадров : Постоянный
Частота кадров : 23,976 кадра/сек
Цветовое пространство : YUV
Субдискретизация насыщенности : 4:2:0
Битовая глубина : 8 бит
Тип развёртки : Прогрессивная
Бит/(Пиксели*Кадры) : 0.349
Размер потока : 10,1 Гбайт (85%)
Библиотека кодирования : x264 core 130 r2273 b3065e6
Настройки программы : cabac=1 / ref=5 / deblock=1:-1:-1 / analyse=0x3:0x113 / me=umh / subme=10 / psy=1 / psy_rd=1.00:0.00 / mixed_ref=1 / me_range=32 / chroma_me=1 / trellis=2 / 8x8dct=1 / cqm=0 / deadzone=21,11 / fast_pskip=1 / chroma_qp_offset=-2 / threads=18 / lookahead_threads=3 / sliced_threads=0 / nr=0 / decimate=1 / interlaced=0 / bluray_compat=0 / constrained_intra=0 / bframes=8 / b_pyramid=2 / b_adapt=2 / b_bias=0 / direct=3 / weightb=1 / open_gop=0 / weightp=2 / keyint=240 / keyint_min=23 / scenecut=40 / intra_refresh=0 / rc_lookahead=80 / rc=crf / mbtree=0 / crf=16.5 / qcomp=1.00 / qpmin=0 / qpmax=69 / qpstep=4 / vbv_maxrate=50000 / vbv_bufsize=50000 / crf_max=0.0 / nal_hrd=none / ip_ratio=1.30 / pb_ratio=1.20 / aq=1:0.90
Язык : English
Default : Да
Forced : Нет

Аудио #1
Идентификатор : 2
Формат : AC-3
Формат/Информация : Audio Coding 3
Расширение режима : CM (complete main)
Параметр Endianness формата : Big
Идентификатор кодека : A_AC3
Продолжительность : 1 ч. 52 м.
Вид битрейта : Постоянный
Битрейт : 384 Кбит/сек
Каналы : 6 каналов
Расположение каналов : Front: L C R, Side: L R, LFE
Частота : 48,0 КГц
Битовая глубина : 16 бит
Метод сжатия : С потерями
Размер потока : 310 Мбайт (3%)
Язык : Russian
Default : Да
Forced : Нет

Аудио #2
Идентификатор : 3
Формат : DTS
Формат/Информация : Digital Theater Systems
Режим : 16
Параметр Endianness формата : Big
Идентификатор кодека : A_DTS
Продолжительность : 1 ч. 52 м.
Вид битрейта : Постоянный
Битрейт : 1509 Кбит/сек
Каналы : 6 каналов
Расположение каналов : Front: L C R, Side: L R, LFE
Частота : 48,0 КГц
Битовая глубина : 24 бит
Метод сжатия : С потерями
Задержка видео : 11 мс.
Размер потока : 1,19 Гбайт (10%)
Язык : English
Default : Нет
Forced : Нет

Аудио #3
Идентификатор : 4
Формат : Vorbis
Параметр Floor формата : 1
Идентификатор кодека : A_VORBIS
Продолжительность : 1 ч. 52 м.
Вид битрейта : Переменный
Битрейт : 52,3 Кбит/сек
Каналы : 2 канала
Частота : 48,0 КГц
Метод сжатия : С потерями
Размер потока : 42,3 Мбайт (0%)
Заголовок : Commentary With Director Ruben Fleischer
Библиотека кодирования : aoTuV 20110424 (UTC 2011-04-24)
Язык : English
Default : Нет
Forced : Нет

Текст #1
Идентификатор : 5
Формат : UTF-8
Идентификатор кодека : S_TEXT/UTF8
Идентификатор кодека/Информация : UTF-8 Plain Text
Заголовок : Force
Язык : Russian
Default : Да
Forced : Да

Текст #2
Идентификатор : 6
Формат : UTF-8
Идентификатор кодека : S_TEXT/UTF8
Идентификатор кодека/Информация : UTF-8 Plain Text
Заголовок : Full
Язык : Russian
Default : Нет
Forced : Нет

Текст #3
Идентификатор : 7
Формат : UTF-8
Идентификатор кодека : S_TEXT/UTF8
Идентификатор кодека/Информация : UTF-8 Plain Text
Язык : English
Default : Нет
Forced : Нет

Текст #4
Идентификатор : 8
Формат : UTF-8
Идентификатор кодека : S_TEXT/UTF8
Идентификатор кодека/Информация : UTF-8 Plain Text
Заголовок : SDH
Язык : English
Default : Нет
Forced : Нет

Текст #5
Идентификатор : 9
Формат : VobSub
Идентификатор кодека : S_VOBSUB
Идентификатор кодека/Информация : The same subtitle format used on DVDs
Язык : French
Default : Нет
Forced : Нет

Текст #6
Идентификатор : 10
Формат : VobSub
Идентификатор кодека : S_VOBSUB
Идентификатор кодека/Информация : The same subtitle format used on DVDs
Язык : Spanish
Default : Нет
Forced : Нет

Текст #7
Идентификатор : 11
Формат : VobSub
Идентификатор кодека : S_VOBSUB
Идентификатор кодека/Информация : The same subtitle format used on DVDs
Язык : Portuguese
Default : Нет
Forced : Нет

Текст #8
Идентификатор : 12
Формат : VobSub
Идентификатор кодека : S_VOBSUB
Идентификатор кодека/Информация : The same subtitle format used on DVDs
Заголовок : Commentary Subs
Язык : English
Default : Нет
Forced : Нет

Текст #9
Идентификатор : 13
Формат : VobSub
Идентификатор кодека : S_VOBSUB
Идентификатор кодека/Информация : The same subtitle format used on DVDs
Заголовок : Commentary Subs
Язык : French
Default : Нет
Forced : Нет

Текст #10
Идентификатор : 14
Формат : VobSub
Идентификатор кодека : S_VOBSUB
Идентификатор кодека/Информация : The same subtitle format used on DVDs
Заголовок : Commentary Subs
Язык : Spanish
Default : Нет
Forced : Нет

Текст #11
Идентификатор : 15
Формат : VobSub
Идентификатор кодека : S_VOBSUB
Идентификатор кодека/Информация : The same subtitle format used on DVDs
Заголовок : Commentary Subs
Язык : Portuguese
Default : Нет
Forced : Нет

Меню
00:00:00.000 : en:00:00:00.000
00:09:53.635 : en:00:09:53.635
00:20:51.167 : en:00:20:51.167
00:28:36.173 : en:00:28:36.173
00:39:22.860 : en:00:39:22.860
00:49:25.462 : en:00:49:25.462
00:59:59.262 : en:00:59:59.262
01:09:23.493 : en:01:09:23.493
01:20:05.259 : en:01:20:05.259
01:31:01.539 : en:01:31:01.539
01:38:50.341 : en:01:38:50.341
01:44:11.370 : en:01:44:11.370



Свернуть

Трейлер
Свернуть

Скриншоты
Изображение
Изображение
Изображение
Свернуть
_________________
S.T.A.L.K.E.R.: Lost Alpha
Не в сети
Профиль  
 Добавлено: 2013-04-09 22:51 (спустя 1 день 1 час)
Стаж: 4 года 11 месяцев
Сообщений: 15
Не плохой фильмец)
Не в сети
Профиль  
 Добавлено: 2013-04-19 19:42 (спустя 9 дней)
Аватара пользователя
Стаж: 8 лет 11 месяцев
Сообщений: 517
Спасибок: 39
Лайков: 49

adidas5233:

Не плохой фильмец)

А вот ты плохой! Раз такой отстой называешь неплохим фильмцом.
Не в сети
Профиль  
 Добавлено: 2013-04-30 19:59 (спустя 11 дней)
Стаж: 7 лет 10 месяцев
Сообщений: 25
Фильм класс. Давно такого позитивчика не смотрел. А вот формат кривой, встроенный плеер не захотел воспроизводить, пришлось ноут подключать по HDMI.
Фильм хоть и "одноразовый", но смотрится на одном дыхании. Как и Реальные парни, который тоже понравился очень, его пересмотрел даже разок.
Не в сети
Профиль  
Начать новую темуОтветить на тему  [ Сообщений: 4 ] 
Вы не можете начинать темы
Вы не можете отвечать на сообщения
Вы не можете редактировать свои сообщения
Вы не можете удалять свои сообщения