Правила форума

  • В этом разделе создание новых тем Запрещено.
  • Для создания новых тем пользуйтесь Корневым разделом DVD и HD фильмы.
Начать новую темуОтветить на тему  [ Сообщений: 4 ] 
Торрент файл
Размер: 8.16 GB • Зарегистрирован: 3 года 6 месяцев • Статус: Проверено
Скачан: 450 раз • Желающих скачать: 0 • Поблагодарили: 130 раз
 Раздают: 0  |  0 KB/s  ]   Качают: 0  |  0 KB/s  ] 
 Полного источника не было 11 часов 
Сообщения
 Добавлено: 2013-06-05 22:09
Аватара пользователя
Стаж: 8 лет 7 месяцев
Сообщений: 572
Спасибок: 12628
Лайков: 11
Охотники на ведьм

Hansel & Gretel: Witch Hunters

Изображение


Год выпуска: 2013
Страна: США
Жанр: ужасы, фэнтези, боевик
Продолжительность: 01:27:56
Перевод: Профессиональный (полное дублирование) [Лицензия]

Режиссёр: Томми Виркола
В ролях: Джереми Реннер, Джемма Артертон, Фамке Янссен, Петер Стормаре, Зои Белл, Дерек Мирс, Моника Гандертон, Томас Манн, Ингрид Болсай Бердал, Пихла Виитала, Томас Шарфф, Ясон Этле, Джоэнна Кулиг, Ванесса Видувильт
Описание: Едва не погибнув в лапах ужасной ведьмы, Гензель и Гретель стали только сильнее. Одержимые местью, они ведут отчаянную борьбу со злом, даже не подозревая, что их поджидает нечто куда более опасное… собственное прошлое…


Качество: BDRip 1080p
Формат: MKV
Видео кодек: x264 (AVC)
Аудио кодек:AC3
Видео: AVC / High@L4.1 / 2 pass / 23,976 fps / 1920x800p (2,40:1) / 12,0 Mbps / 0.326
Аудио #1: AC3 / 5.1 ch / 640 kbps / Русский дубляж, BD CEE [Профессиональный (дубляж)] [Лицензия]
Аудио #2: AC3 / 5.1 ch / 640 kbps / Английский original, BD CEE /ENG/[Оригинальная звуковая дорожка]
Субтитры: [softsub SRT]
Русские Full, BD CEE
Украинские Full, BD CEE
Английские SDH


MediaInfo
Общее
Уникальный идентификатор : 178168367349116724888991844316857328854 (0x8609FAB8C7C73A63B3AA0923EE2564D6)
Полное имя : E:\КИНО\ИЮНЬ\Hansel.and.Gretel.Witch.Hunters.2013.Theatrical.Cut.BDRip1080p NNTT.mkv
Формат : Matroska
Версия формата : Version 4 / Version 2
Размер файла : 8,16 Гбайт
Продолжительность : 1 ч. 27 м.
Общий поток : 13,3 Мбит/сек
Название фильма : Hansel & Gretel: Witch Hunters (2013) Theatrical Cut by Killbrain
Дата кодирования : UTC 2013-06-05 15:22:37
Программа кодирования : mkvmerge v6.2.0 ('Promised Land') built on Apr 28 2013 12:22:01
Библиотека кодирования : libebml v1.3.0 + libmatroska v1.4.0

Видео
Идентификатор : 1
Формат : AVC
Формат/Информация : Advanced Video Codec
Профиль формата : High@L4.1
Параметр CABAC формата : Да
Параметр ReFrames формата : 4 кадра
Идентификатор кодека : V_MPEG4/ISO/AVC
Продолжительность : 1 ч. 27 м.
Битрейт : 12,0 Мбит/сек
Ширина : 1920 пикселей
Высота : 800 пикселей
Соотношение сторон : 2,40:1
Режим частоты кадров : Постоянный
Частота кадров : 23,976 кадра/сек
Цветовое пространство : YUV
Субдискретизация насыщенности : 4:2:0
Битовая глубина : 8 бит
Тип развёртки : Прогрессивная
Бит/(Пиксели*Кадры) : 0.326
Размер потока : 7,21 Гбайт (88%)
Заголовок : Hansel & Gretel: Witch Hunters (2013) Theatrical Cut
Библиотека кодирования : x264 core 132 r2310 76a5c3a
Настройки программы : cabac=1 / ref=4 / deblock=1:-2:-2 / analyse=0x3:0x113 / me=umh / subme=10 / psy=1 / psy_rd=1.00:0.15 / mixed_ref=1 / me_range=16 / chroma_me=1 / trellis=2 / 8x8dct=1 / cqm=0 / deadzone=21,11 / fast_pskip=0 / chroma_qp_offset=-3 / threads=3 / lookahead_threads=1 / sliced_threads=0 / nr=0 / decimate=0 / interlaced=0 / bluray_compat=0 / constrained_intra=0 / bframes=7 / b_pyramid=2 / b_adapt=2 / b_bias=0 / direct=3 / weightb=1 / open_gop=0 / weightp=2 / keyint=240 / keyint_min=24 / scenecut=40 / intra_refresh=0 / rc_lookahead=60 / rc=2pass / mbtree=0 / bitrate=12000 / ratetol=1.0 / qcomp=0.65 / qpmin=0 / qpmax=69 / qpstep=4 / cplxblur=20.0 / qblur=0.5 / vbv_maxrate=40000 / vbv_bufsize=30000 / nal_hrd=none / ip_ratio=1.40 / pb_ratio=1.30 / aq=1:0.80
Язык : English
Default : Да
Forced : Нет

Аудио #1
Идентификатор : 2
Формат : AC-3
Формат/Информация : Audio Coding 3
Расширение режима : CM (complete main)
Параметр Endianness формата : Big
Идентификатор кодека : A_AC3
Продолжительность : 1 ч. 27 м.
Вид битрейта : Постоянный
Битрейт : 640 Кбит/сек
Каналы : 6 каналов
Расположение каналов : Front: L C R, Side: L R, LFE
Частота : 48,0 КГц
Битовая глубина : 16 бит
Метод сжатия : С потерями
Размер потока : 403 Мбайт (5%)
Заголовок : AC3 / 5.1 ch / 640 kbps / Русский дубляж, BD CEE
Язык : Russian
Default : Да
Forced : Нет


Аудио #2
Идентификатор : 3
Формат : AC-3
Формат/Информация : Audio Coding 3
Расширение режима : CM (complete main)
Параметр Endianness формата : Big
Идентификатор кодека : A_AC3
Продолжительность : 1 ч. 27 м.
Вид битрейта : Постоянный
Битрейт : 640 Кбит/сек
Каналы : 6 каналов
Расположение каналов : Front: L C R, Side: L R, LFE
Частота : 48,0 КГц
Битовая глубина : 16 бит
Метод сжатия : С потерями
Размер потока : 403 Мбайт (5%)
Заголовок : AC3 / 5.1 ch / 640 kbps / Английский original, BD CEE
Язык : English
Default : Нет
Forced : Нет


Текст #1
Идентификатор : 4
Формат : UTF-8
Идентификатор кодека : S_TEXT/UTF8
Идентификатор кодека/Информация : UTF-8 Plain Text
Заголовок : Full, BD CEE
Язык : Russian
Default : Нет
Forced : Нет


Текст #2
Идентификатор : 5
Формат : UTF-8
Идентификатор кодека : S_TEXT/UTF8
Идентификатор кодека/Информация : UTF-8 Plain Text
Заголовок : Full, BD CEE
Язык : Ukrainian
Default : Нет
Forced : Нет


Текст #3
Идентификатор : 6
Формат : UTF-8
Идентификатор кодека : S_TEXT/UTF8
Идентификатор кодека/Информация : UTF-8 Plain Text
Заголовок : SDH
Язык : English
Default : Нет
Forced : Нет


Меню
00:00:00.000 : :Chapter 01
00:08:56.827 : :Chapter 02
00:15:57.790 : :Chapter 03
00:24:07.112 : :Chapter 04
00:32:17.936 : :Chapter 05
00:40:12.868 : :Chapter 06
00:46:45.636 : :Chapter 07
00:52:22.097 : :Chapter 08
01:00:20.033 : :Chapter 09
01:05:05.651 : :Chapter 10
01:12:49.656 : :Chapter 11
01:19:01.820 : :Chapter 12
Свернуть


Скриншоты
Изображение
Изображение
Изображение
Изображение
Изображение
Изображение
Изображение
Изображение
Свернуть


Последний раз редактировалось Ramx32 2013-06-14 22:19, всего редактировалось 7 раз(а).
Не в сети
Профиль  
 Добавлено: 2013-06-06 20:40 (спустя 22 часа)
Модератор
Аватара пользователя
Стаж: 8 лет 11 месяцев
Сообщений: 516
Спасибок: 26888
Лайков: 1
Внимание: Для DVD и HD-разделов необходимы развернутые технические данные:
Для HD: Отчет MediaInfo или BDInfo (под спойлером)
Так же мы убедительно не рекомендуем вам использовать нестандартные шрифты и цвета букв. Это допускается только для акцентирования важной информации (одного-двух моментов), но не всего текста релиза.
Не в сети
Профиль  
 Добавлено: 2013-06-08 23:08 (спустя 2 дня 2 часа)
Стаж: 8 лет 8 месяцев
Сообщений: 16
Спасибок: 8
Английская дорожка - для незрячих людей. Почему нелья было нормальную оставить?
Не в сети
Профиль  
 Добавлено: 2013-07-03 18:16 (спустя 24 дня)
Стаж: 3 года 5 месяцев
Сообщений: 1
глюк на глюке :( попробую еще разок может делаю че не так.
Не в сети
Профиль  
Начать новую темуОтветить на тему  [ Сообщений: 4 ] 
Вы не можете начинать темы
Вы не можете отвечать на сообщения
Вы не можете редактировать свои сообщения
Вы не можете удалять свои сообщения