Правила форума

  • В этом разделе создание новых тем Запрещено.
  • Для создания новых тем пользуйтесь Корневым разделом DVD и HD фильмы.
Начать новую темуОтветить на тему  [ Сообщений: 3 ] 
Торрент файл
Размер: 13.95 GB • Зарегистрирован: 4 года 10 месяцев • Статус: Проверено
Скачан: 268 раз • Желающих скачать: 0 • Поблагодарили: 52 раза
 Раздают: 0  |  0 KB/s  ]   Качают: 0  |  0 KB/s  ] 
 Полного источника не было 1 час 38 минут 
Сообщения
 Добавлено: 2012-02-04 12:16
Top-releaser
Аватара пользователя
Стаж: 8 лет 9 месяцев
Сообщений: 479
Спасибок: 20187
Лайков: 16
Изображение

Охотники за головами

Hodejegerne





Год выпуска: 2011
Страна: Изображение Германия, Изображение Норвегия, Nordisk Film A/S
Жанр: Боевик, триллер, криминал
Продолжительность: 01:40:06
Перевод: Профессиональный (дублированный) [Лицензия], Оригинал
Субтитры: Английские

Режиссёр: Мортен Тильдум / Morten Tyldum

В ролях: Николай Костер-Вальдау, Юлье Ольгорд, Аксель Хенни, Бор Ове, Йоахим Рафаелсен, Эйвинд Сэндер, Нильс Йорген Каалстад, Карре Хаген Сиднесс, Рейдар Серенсен

Описание: Роджер Браун — блестящий «охотник за головами», незаменимый специалист по подбору топ-менеджеров для крупнейших фирм. Он может найти нужного человека на любую должность и его рекомендация — залог получения работы. Чтобы удержать красавицу жену, открывшую на деньги мужа картинную галерею в модном районе, Роджер давно уже живет не по средствам, и, пользуясь своим служебным положением, крадет дорогие картины у претендентов на руководящие должности.

Однажды Роджер встречает голландца Класа Граафа: идеального кандидата для фирмы специализирующейся на навигационном оборудовании и — вот удача! — владельца картины Рубенса, считавшейся утерянной во время Второй Мировой войны. Кража и последующая продажа шедевра может помочь Роджеру навсегда решить все финансовые проблемы.

Но, внезапно, «охотник за головами» сам превращается в добычу.



Качество: BDRip 1080p
Формат: MKV

Видео: MPEG-4 AVC, 18.0 Мбит/с, 1920×800, 24.000 кадр/с

Аудио 1: AC-3 at 448 Кбит/сек, 6 канала(ов), 48,0 КГц [Дубляж]
Аудио 2: DTS at 1510 Кбит/сек, 6 канала(ов), 48,0 КГц [Норвежский]

Раздача: Изображение

Изображение
MediaInfo

Общее
Уникальный идентификатор : 231121403823953140892274418916608596411 (0xADE05CFD625D3B5E9BEECC14ED0A59BB)
Полное имя : C:\Users\Домашний\Desktop\Ohotniki.za.golovami.2011.BDRip.(1080p)[nntt].mkv
Формат : Matroska
Размер файла : 13,9 Гбайт
Продолжительность : 1 ч. 40 м.
Общий поток : 20,0 Мбит/сек
Название фильма : ELEKTRI4KA
Дата кодирования : UTC 2012-02-03 16:30:47
Программа кодирования : mkvmerge v5.2.0 ('I can't explain') built on Dec 18 2011 18:12:03
Библиотека кодирования : libebml v1.2.3 + libmatroska v1.3.0

Видео
Идентификатор : 1
Формат : AVC
Формат/Информация : Advanced Video Codec
Профиль формата : High@L4.1
Параметр CABAC формата : Да
Параметр ReFrames формата : 5 кадры
Идентификатор кодека : V_MPEG4/ISO/AVC
Продолжительность : 1 ч. 40 м.
Битрейт : 18,0 Мбит/сек
Ширина : 1920 пикс.
Высота : 800 пикс.
Соотношение сторон : 2,40:1
Частота кадров : 24,000 кадр/сек
Цветовое пространство : YUV
Подвыборка цветности : 4:2:0
Битовая глубина : 8 бит
Тип развёртки : Прогрессивная
Бит/(Пиксели*Кадры) : 0.488
Размер потока : 12,3 Гбайт (88%)
Заголовок : Hodejegerne (2011)
Библиотека кодирования : x264 core 119 r2106 07efeb4
Настройки программы : cabac=1 / ref=5 / deblock=1:-3:-3 / analyse=0x3:0x133 / me=umh / subme=10 / psy=1 / psy_rd=1.10:0.10 / mixed_ref=1 / me_range=24 / chroma_me=1 / trellis=2 / 8x8dct=1 / cqm=0 / deadzone=21,11 / fast_pskip=0 / chroma_qp_offset=-3 / threads=12 / sliced_threads=0 / nr=0 / decimate=0 / interlaced=0 / bluray_compat=0 / constrained_intra=0 / bframes=8 / b_pyramid=2 / b_adapt=2 / b_bias=0 / direct=3 / weightb=1 / open_gop=0 / weightp=2 / keyint=250 / keyint_min=24 / scenecut=40 / intra_refresh=0 / rc_lookahead=60 / rc=2pass / mbtree=0 / bitrate=18000 / ratetol=1.0 / qcomp=0.60 / qpmin=0 / qpmax=69 / qpstep=4 / cplxblur=20.0 / qblur=0.5 / vbv_maxrate=50000 / vbv_bufsize=50000 / nal_hrd=none / ip_ratio=1.40 / pb_ratio=1.30 / aq=1:0.60
Язык : Norwegian

Аудио #1
Идентификатор : 2
Формат : AC-3
Формат/Информация : Audio Coding 3
Расширение режима : CM (complete main)
Идентификатор кодека : A_AC3
Продолжительность : 1 ч. 40 м.
Вид битрейта : Постоянный
Битрейт : 448 Кбит/сек
Канал(ы) : 6 канала(ов)
Расположение каналов : Front: L C R, Side: L R, LFE
Частота : 48,0 КГц
Битовая глубина : 16 бит
Метод сжатия : С потерями
Задержка видео : 80 мс.
Размер потока : 321 Мбайт (2%)
Заголовок : Dub R5
Язык : Russian

Аудио #2
Идентификатор : 3
Формат : DTS
Формат/Информация : Digital Theater Systems
Идентификатор кодека : A_DTS
Продолжительность : 1 ч. 40 м.
Вид битрейта : Постоянный
Битрейт : 1510 Кбит/сек
Канал(ы) : 6 канала(ов)
Расположение каналов : Front: L C R, Side: L R, LFE
Частота : 48,0 КГц
Битовая глубина : 24 бит
Метод сжатия : С потерями
Размер потока : 1,06 Гбайт (8%)
Заголовок : DTS 5.1 @ 1536 kbps
Язык : Norwegian

Текст
Идентификатор : 4
Формат : UTF-8
Идентификатор кодека : S_TEXT/UTF8
Идентификатор кодека/Информация : UTF-8 Plain Text
Язык : English

Меню
00:00:00.000 : :1
00:06:50.458 : :2
00:12:57.625 : :3
00:17:13.750 : :4
00:24:38.958 : :5
00:30:14.917 : :6
00:36:21.708 : :7
00:41:42.292 : :8
00:48:17.125 : :9
00:53:49.167 : :10
00:58:47.500 : :11
01:05:00.083 : :12
01:12:10.167 : :13
01:20:13.042 : :14
01:27:04.042 : :15
01:34:20.958 : :16


Свернуть
Скриншоты

Изображение
Изображение
Изображение
Изображение
Изображение
Свернуть
_________________
Изображение
Изображение
Не в сети
Профиль  
 Добавлено: 2012-02-06 16:09 (спустя 2 дня 3 часа)
Аватара пользователя
Стаж: 6 лет 9 месяцев
Возраст: 38
Сообщений: 43
Фильм отличный.Но побег в говнище на тракторе и с дохлой псиной на вилах??!! Тарантино наверняка снимет шляпу.
Не в сети
Профиль  
 Добавлено: 2015-01-09 20:16 (спустя 2 года 11 месяцев)
Аватара пользователя
Стаж: 5 лет 5 месяцев
Возраст: 23
Сообщений: 484
Спасибок: 1403
Лайков: 1
раздайте
Не в сети
Профиль  
Начать новую темуОтветить на тему  [ Сообщений: 3 ] 
Вы не можете начинать темы
Вы не можете отвечать на сообщения
Вы не можете редактировать свои сообщения
Вы не можете удалять свои сообщения