Правила форума

  • В этом разделе создание новых тем Запрещено.
  • Для создания новых тем пользуйтесь Корневым разделом DVD и HD фильмы.
Начать новую темуОтветить на тему  [ Сообщений: 8 ] 
Торрент файл
Размер: 5.8 GB • Зарегистрирован: 4 года 10 месяцев • Статус: Проверено
Скачан: 103 раза • Желающих скачать: 0 • Поблагодарили: 26 раз
 Раздают: 0  |  0 KB/s  ]   Качают: 0  |  0 KB/s  ] 
 Полного источника не было 3 года 2 месяца 
Сообщения
 Добавлено: 2012-02-04 09:47
Аватара пользователя
Стаж: 8 лет 10 месяцев
Сообщений: 26
Спасибок: 172
Охотники за головами / Hodejegerne

Изображение


Год выпуска: 2011
Страна: Норвегия (ARD Degeto Film GmbH, Nordisk Film A/S, Friland A/S, Yellow Bird Films AB)
Жанр: Триллер, криминал, боевик
Продолжительность: 01:40:06
Версия фильма: Theatrical / Театральная версия
Перевод: Профессиональный (дубляж) + Оригинальная звуковая дорожка
Субтитры: Английские

Режиссёр: Мортен Тильдум
Сценарист: Ларс Гудместад, Ульф Рюберг, Ю Несбё
Продюсер: Марианн Грэй, Asle Vatn, Анни Форби Фернандез
Оператор: Джон Андреас Андерсен
В ролях: Аксель Хенни, Николай Костер-Вальдау, Синневе Макоди Лунд, Юлье Ольгорд, Карре Хаген Сиднесс, Рейдар Серенсен, Нильс Йорген Каалстад, Йоахим Рафаелсен, Бор Ове, Нилс Гуннар Ли, Эйвинд Сэндер
Аксель Хенни, Николай Костер-Вальдау, Синневе Макоди Лунд, Юлье Ольгорд, Карре Хаген Сиднесс, Рейдар Серенсен, Нильс Йорген Каалстад, Йоахим Рафаелсен, Бор Ове, Нилс Гуннар Ли, Эйвинд Сэндер
Описание: Роджер Браун — блестящий «охотник за головами», незаменимый специалист по подбору топ-менеджеров для крупнейших фирм. Он может найти нужного человека на любую должность и его рекомендация — залог получения работы. Чтобы удержать красавицу жену, открывшей на деньги мужа картинную галерею в модном районе, Роджер давно уже живет не по средствам, и, пользуясь своим служебным положением, крадет дорогие картины у претендентов на руководящие должности. Однажды Роджер встречает голландца Класа Граафа: идеального кандидата для фирмы специализирующейся на навигационном оборудовании и — вот удача! — владельца картины Рубенса, считавшейся утерянной во время Второй Мировой войны. Кража и последующая продажа шедевра может помочь Роджеру навсегда решить все финансовые проблемы. Но, внезапно, «охотник за головами» сам превращается в добычу.
Рейтинг MPAA: Рейтинг R (Подростки до 17 лет допускаются на фильм только в сопровождении одного из родителей)
Мировая премьера: 4 августа 2011
Премьера в России: 12 января 2012
Бюджет: NOK 30 300 000
Изображение 7.378 (1 891)
Изображение 7.5/10 (4,733)

Качество: BDRip (720p)
Формат: Матроска
Видео кодек: MPEG-4 AVC
Аудио кодек: AC3 (Dolby Digital)
Видео: MPEG-4 AVC, 6347 Кбит/с, 1280x534, 24.000 кадр/с
Аудио #1: русский 48 kHz, AC3 Dolby Digital, 3/2 (L,C,R,l,r) + LFE ch, ~448.00 kbps avg [Профессиональный (дубляж)]
Аудио #2: норвежский (DTS, 6 ch, 1536 Кбит/с) [Оригинальная звуковая дорожка]
Субтитры: Английские
Скриншоты
Изображение
Изображение
Изображение
Изображение
Свернуть

MediaInfo
Cкрытый текст
General
Unique ID : 229887141877271792729460613833835405294 (0xACF2A72D708A7642B76F52C74A27DFEE)
Complete name : E:\Films\Ohotniki.za.golovami.2011.x264.BDRip(720p).Dub.mkv
Format : Matroska
Format version : Version 2
File size : 5.80 GiB
Duration : 1h 40mn
Overall bit rate : 8 299 Kbps
Movie name : --SCHUMAHER--
Encoded date : UTC 2012-02-04 06:28:53
Writing application : mkvmerge v4.6.0 ('Still Crazy After All These Years') сборка от Mar 10 2011 02:50:32
Writing library : libebml v1.2.0 + libmatroska v1.1.0

Video
ID : 1
Format : AVC
Format/Info : Advanced Video Codec
Format profile : High@L4.1
Format settings, CABAC : Yes
Format settings, ReFrames : 8 frames
Muxing mode : Header stripping
Codec ID : V_MPEG4/ISO/AVC
Duration : 1h 40mn
Bit rate : 6 347 Kbps
Width : 1 280 pixels
Height : 534 pixels
Display aspect ratio : 2.40:1
Frame rate : 24.000 fps
Color space : YUV
Chroma subsampling : 4:2:0
Bit depth : 8 bits
Scan type : Progressive
Bits/(Pixel*Frame) : 0.387
Stream size : 4.32 GiB (74%)
Writing library : x264 core 98 r1649 c54c47d
Encoding settings : cabac=1 / ref=8 / deblock=1:-3:-3 / analyse=0x3:0x113 / me=umh / subme=9 / psy=1 / psy_rd=1.10:0.00 / mixed_ref=1 / me_range=32 / chroma_me=1 / trellis=2 / 8x8dct=1 / cqm=0 / deadzone=21,11 / fast_pskip=0 / chroma_qp_offset=-4 / threads=12 / sliced_threads=0 / nr=0 / decimate=0 / interlaced=0 / constrained_intra=0 / bframes=8 / b_pyramid=2 / b_adapt=2 / b_bias=0 / direct=3 / weightb=1 / weightp=2 / keyint=250 / keyint_min=25 / scenecut=40 / intra_refresh=0 / rc_lookahead=48 / rc=2pass / mbtree=1 / bitrate=6347 / ratetol=1.0 / qcomp=0.60 / qpmin=10 / qpmax=51 / qpstep=4 / cplxblur=20.0 / qblur=0.5 / ip_ratio=1.40 / aq=1:0.80
Language : Norwegian

Audio #1
ID : 2
Format : AC-3
Format/Info : Audio Coding 3
Mode extension : CM (complete main)
Muxing mode : Header stripping
Codec ID : A_AC3
Duration : 1h 40mn
Bit rate mode : Constant
Bit rate : 448 Kbps
Channel(s) : 6 channels
Channel positions : Front: L C R, Side: L R, LFE
Sampling rate : 48.0 KHz
Bit depth : 16 bits
Compression mode : Lossy
Delay relative to video : 2s 725ms
Stream size : 321 MiB (5%)
Title : RusDub

Audio #2
ID : 3
Format : DTS
Format/Info : Digital Theater Systems
Muxing mode : Header stripping
Codec ID : A_DTS
Duration : 1h 40mn
Bit rate mode : Constant
Bit rate : 1 510 Kbps
Channel(s) : 6 channels
Channel positions : Front: L C R, Side: L R, LFE
Sampling rate : 48.0 KHz
Bit depth : 24 bits
Compression mode : Lossy
Delay relative to video : 11ms
Stream size : 1.06 GiB (18%)
Language : Norwegian

Text
ID : 4
Format : UTF-8
Codec ID : S_TEXT/UTF8
Codec ID/Info : UTF-8 Plain Text
Language : English
Свернуть


Последний раз редактировалось Shurok 2012-02-04 10:45, всего редактировалось 1 раз.
Не в сети
Профиль  
 Добавлено: 2012-02-04 10:31 (спустя 43 минуты)
Аватара пользователя
Стаж: 8 лет 3 месяца
Возраст: 43
Сообщений: 3290
Спасибок: 21012
Лайков: 3
Shurok
Для HD и HQRip-ов необходимы скриншоты в формате PNG, для остальных форматов PNG так же рекомендуется.
Внимание: Для DVD и HD-разделов необходимы развернутые технические данные:
Для DVD: Отчет DVDInfo (под спойлером)
Для HD: Отчет BDInfo→ (после нажатия кнопки «scan bitrates» и окончания сканирования) или MediaInfo→ ( весь текст из режима view (вид) → text (текст).) (под спойлером)
Исправьте пожалуйста
Как все исправите, то сообщите пожалуйста в ЛС мне или любому модератору видео. Обязательно со ссылкой на релиз :)
_________________
Изображение
Не в сети
Профиль  
 Добавлено: 2012-02-04 11:51 (спустя 1 час 20 минут)
Top-seeder
Аватара пользователя
Стаж: 8 лет 11 месяцев
Возраст: 29
Сообщений: 247
Спасибок: 123
А в чем особенность театральной версии?
Не в сети
Профиль  
 Добавлено: 2012-02-04 12:45 (спустя 54 минуты)
Аватара пользователя
Стаж: 8 лет 10 месяцев
Сообщений: 26
Спасибок: 172
Fint
Это которая в кинотеатрах идет.
Не в сети
Профиль  
 Добавлено: 2012-02-04 13:13 (спустя 27 минут)
Top-seeder
Аватара пользователя
Стаж: 8 лет 11 месяцев
Возраст: 29
Сообщений: 247
Спасибок: 123
Shurok
Ок, спс. первый раз термин подобный встречаю. Все камрипы по сути театральные версии))
Не в сети
Профиль  
 Добавлено: 2012-02-05 18:24 (спустя 1 день 5 часов)
Стаж: 8 лет 6 месяцев
Сообщений: 264
Спасибок: 515
Лайков: 14
А фильм-то хороший!

Cкрытый текст
ГГ лысина больше идет
Свернуть
Не в сети
Профиль  
 Добавлено: 2012-04-16 14:44 (спустя 2 месяца 10 дней)
Аватара пользователя
Стаж: 6 лет 11 месяцев
Сообщений: 16
фильм реальный :bra_vo:
Не в сети
Профиль  
 Добавлено: 2012-12-01 19:40 (спустя 7 месяцев)
Стаж: 4 года 2 месяца
Сообщений: 8
Фильм нормальный , посмотреть можно , только на роль главного героя реально фофона подобрали , так себе актерешко.... личная оценка 3+ ( по 5 баллам ) . ЗЛОДЕЙ .
Не в сети
Профиль  
Начать новую темуОтветить на тему  [ Сообщений: 8 ] 
Вы не можете начинать темы
Вы не можете отвечать на сообщения
Вы не можете редактировать свои сообщения
Вы не можете удалять свои сообщения