Правила форума

  • В этом разделе создание новых тем Запрещено.
  • Для создания новых тем пользуйтесь Корневым разделом DVD и HD фильмы.
Начать новую темуОтветить на тему  [ 1 сообщение ] 
Торрент файл
Размер: 6.79 GB • Зарегистрирован: 4 года 5 месяцев • Статус: Проверено
Скачан: 19 раз • Желающих скачать: 0 • Поблагодарили: 4 раза
 Раздают: 0  |  0 KB/s  ]   Качают: 0  |  0 KB/s  ] 
 Полного источника не было 3 дня 
Сообщения
 Добавлено: 2012-06-27 18:36
Top-seeder
Аватара пользователя
Стаж: 6 лет 10 месяцев
Возраст: 28
Сообщений: 280
Спасибок: 606
Изображение
Изображение
Охотники за привидениями / GhostBusters
"Кто-то борется с тараканами и насекомыми. Они очищают город от привидений"



Изображение



Год выпуска: 1984
Страна: США
Жанр: фантастика, фэнтези, боевик, комедия
Продолжительность: 01:45:08
Перевод: Профессиональный (многоголосый закадровый) + Одноголосый закадровый (Ю.Живов) + оригинал
Субтитры: Русские,английские

Режиссёр: Айвен Райтман
Сценарист: Дэн Эйкройд, Харольд Рэмис, Рик Морэнис
Продюсер: Берни Бриллштейн, Майкл С. Гросс, Джо Медьяк
Оператор: Ласло Ковач
Композитор: Бобби Алесси, Том Бэйли, Элмер Бернстайн
В ролях: Билл Мюррэй, Дэн Эйкройд, Сигурни Уивер, Харольд Рэмис, Рик Морэнис, Энни Поттс, Уильям Этертон, Эрни Хадсон, Дэвид Маргулис, Стивен Тэш
Описание: В конце двадцатого века оказывается, что в Нью — Йорке живут не только обычные граждане, но и… привидения. Многомиллионное население не может противостоять натиску сверхъестественного.

В конце концов на пути бесчисленных монстров не остается никого — кроме троих ученых — парапсихологов, которым известно все о потустороннем мире, правда только в теории. И теперь им придется оставить пыльные кабинеты и применить свои знания на практике…
Рейтинг MPAA: Рейтинг PG (Детям рекомендуется смотреть фильм с родителями)
Мировая премьера: 7 июня 1984
Бюджет: $30 000 000
Кассовые сборы: $291 632 124

Изображение 7.870

Качество: BDRip
Формат: MKV
Видео кодек: MPEG4
Аудио кодек: AC3 (Dolby Digital)
Видео: 1280x532 at 23.976 fps, x264@L4.1, ~7764 kbps avg
Аудио#1: Russian: 48 kHz, AC3, 3/2 (L,C,R,l,r) + LFE ch, ~640.00 kbps avg |Многоголосый закадровый, Blu-ray CEE|
Аудио#2: Russian: 48 kHz, AC3, 2/0 (L,R), ~192.00 kbps avg |Одноголосый закадровый, Ю.Живов|
Аудио#3: English: 48 kHz, AC3, 3/2 (L,C,R,l,r) + LFE ch, ~640.00 kbps avg
Субтитры: Русские(полные),русские(надписи),английские

Скриншоты
Изображение
Изображение
Изображение
Изображение
Изображение

Свернуть

Media Info
General
Unique ID : 234692957414522118572435164013160631164 (0xB090382D5C3A0B55AADC755EA2A90B7C)
Complete name : O:\Охотники за привидениями.BDRip.[720p].mkv
Format : Matroska
File size : 6.79 GiB
Duration : 1h 45mn
Overall bit rate : 9 240 Kbps
Movie name : Ghostbusters (1984) - Release for HDCLUB
Encoded date : UTC 2012-06-27 15:09:09
Writing application : mkvmerge v2.4.2 ('Oh My God') built on Jan 18 2009 17:30:28
Writing library : libebml v0.7.7 + libmatroska v0.8.1

Video
ID : 1
Format : AVC
Format/Info : Advanced Video Codec
Format profile : High@L4.1
Format settings, CABAC : Yes
Format settings, ReFrames : 11 frames
Codec ID : V_MPEG4/ISO/AVC
Duration : 1h 45mn
Bit rate : 7 764 Kbps
Width : 1 280 pixels
Height : 532 pixels
Display aspect ratio : 2.40:1
Frame rate : 23.976 fps
Color space : YUV
Chroma subsampling : 4:2:0
Bit depth : 8 bits
Scan type : Progressive
Bits/(Pixel*Frame) : 0.476
Stream size : 5.57 GiB (82%)
Title : Release for HDCLUB
Writing library : x264 core 67 r1162M f7bfcfa
Encoding settings : cabac=1 / ref=11 / deblock=1:-3:-3 / analyse=0x3:0x113 / me=umh / subme=9 / psy_rd=0.9:0.0 / mixed_ref=0 / me_range=24 / chroma_me=1 / trellis=2 / 8x8dct=1 / cqm=0 / deadzone=21,11 / chroma_qp_offset=-2 / threads=6 / nr=0 / decimate=0 / mbaff=0 / bframes=3 / b_pyramid=1 / b_adapt=2 / b_bias=0 / direct=3 / wpredb=1 / keyint=250 / keyint_min=25 / scenecut=40 / rc=2pass / bitrate=7764 / ratetol=1.0 / qcomp=0.60 / qpmin=10 / qpmax=51 / qpstep=4 / cplxblur=20.0 / qblur=0.5 / ip_ratio=1.40 / pb_ratio=1.30 / aq=1:0.80
Language : English

Audio #1
ID : 2
Format : AC-3
Format/Info : Audio Coding 3
Mode extension : CM (complete main)
Codec ID : A_AC3
Duration : 1h 45mn
Bit rate mode : Constant
Bit rate : 640 Kbps
Channel(s) : 6 channels
Channel positions : Front: L C R, Side: L R, LFE
Sampling rate : 48.0 KHz
Bit depth : 16 bits
Compression mode : Lossy
Stream size : 481 MiB (7%)
Title : AC3 5.1 @ 640 kbps - Многоголосый закадровый
Language : Russian

Audio #2
ID : 3
Format : AC-3
Format/Info : Audio Coding 3
Mode extension : CM (complete main)
Codec ID : A_AC3
Duration : 1h 45mn
Bit rate mode : Constant
Bit rate : 192 Kbps
Channel(s) : 2 channels
Channel positions : Front: L R
Sampling rate : 48.0 KHz
Bit depth : 16 bits
Compression mode : Lossy
Stream size : 144 MiB (2%)
Title : AC3 2.0 @ 192 kbps - Одноголосый закадровый, Ю.Живов
Language : Russian

Audio #3
ID : 4
Format : AC-3
Format/Info : Audio Coding 3
Mode extension : CM (complete main)
Codec ID : A_AC3
Duration : 1h 45mn
Bit rate mode : Constant
Bit rate : 640 Kbps
Channel(s) : 6 channels
Channel positions : Front: L C R, Side: L R, LFE
Sampling rate : 48.0 KHz
Bit depth : 16 bits
Compression mode : Lossy
Stream size : 481 MiB (7%)
Title : AC3 5.1 @ 640 kbps
Language : English

Text #1
ID : 5
Format : UTF-8
Codec ID : S_TEXT/UTF8
Codec ID/Info : UTF-8 Plain Text
Title : forced
Language : Russian

Text #2
ID : 6
Format : UTF-8
Codec ID : S_TEXT/UTF8
Codec ID/Info : UTF-8 Plain Text
Language : Russian

Text #3
ID : 7
Format : UTF-8
Codec ID : S_TEXT/UTF8
Codec ID/Info : UTF-8 Plain Text
Language : English

Свернуть
Знаете ли Вы, что...
Создатели картины не смогли перенести дату релиза на более позднюю дату, и летом 1984 года на экраны США вышла «сырая» версия фильма с недоделанными спецэффектами и некоторыми сюжетными неточностями. Но к счастью, зрители проигнорировали эти недостатки и принесли авторам фильма неплохие кассовые сборы.
Роль Питера Венкмана писалась под Джона Белуши.
Роль Уинстона разрабатывалась под Эдди Мерфи.
По сценарию первое появление человека-зефира должно было произойти на фоне статуи Свободы, чтобы показать разницу в размерах, но эта сцена была признана слишком сложной для съемки, и из сценария ее пришлось убрать.
В качестве подогрева интереса к картине, режиссер картины Айвен Райтман пошел на довольно интересную авантюру. В ротацию был запущен рекламный ролик, в котором традиционное для кинокартин начало телефонного номера «555» было заменено на обычное «1-800». Любопытные обыватели, дозвонившиеся по этому номеру, могли услышать в ответ специально записанное послание в исполнении Билла Мюррея и Дэна Эйкройда. В течение шести недель каждый час на этот номер поступало около 1000 звонков.
Заглавная песня из кинофильма, написанная Рэем Паркером младшим, три недели возглавляла Billboard.
По первоначальной задумке Эктомобиль должен был быть полностью черным. Но после того, как было принято решение, что большая часть автосъемок пройдет ночью, машину перекрасили в белый цвет.
Питера Венкмана мог сыграть Стив Гуттенберг, но он предпочел «Охотникам за привидениями» работу в «Полицейской академии».
Первоначально сценарий назывался «Ghost Smashers».
На самом деле, в 1982 году Айвен Рейтман планировал экранизировать «Автостопом по галактике» (с Биллом Мюрреем и Дэном Эйкройдом), но вместо этого снял «Охотников за привидениями».
Демонический голос Даны/Зуул принадлежит Айвену Рейтману.
В первоначальном варианте сценария Гарольда Рэмиса действие происходит в будущем, причем на разных планетах. Но Рейтман сказал, что такой фильм стоил бы 300 миллионов долларов (и это — в 1984 году), поэтому сценарий пришлось переписать
Привидение по имени «Лизун» в оригинале звался «Лукоголовым» из-за скверного запаха изо рта.
Дом, где живет Дана, существует на самом деле, но вместо 22 этажей в нем всего лишь 20 (address: 55 Central Park West, New York).
Гозер изначально должен был выглядеть как человек в деловом костюме и его должен был играть артист Пол Ройбенс, но тот отказался от роли. Точно так же отказалась и панк-рокерша Энн Карлайл от роли Зуул.
На роль Игона рассматривались кандидатуры Кристофера Уокена, Джона Литгоу, Джеффа Голдблума и Кристофера Ллойда.
Роль Питера Вэнкмана предлагали также Майклу Китону, а после того, как он от нее отказался, ему предложили роль Игона. Китон отказался и от нее. Другим претендентом был Чеви Чейз. Он отказался, а потом аргументировал это тем, что ему подсунули черновой сценарий, где все было мрачно и страшно.
Роль Луиса (сыгранная Риком Моранисом) предназначалась для Джона Кэнди, но тот отказался после того, как его идеи насчет характера персонажа были отвергнуты Рейтманом.
Свернуть
_________________

Изображение
Приму в дар,или куплю радиотехнику(усилители,колонки)
Изображение
Изображение
Не в сети
Профиль  
Начать новую темуОтветить на тему  [ 1 сообщение ] 
Вы не можете начинать темы
Вы не можете отвечать на сообщения
Вы не можете редактировать свои сообщения
Вы не можете удалять свои сообщения