Правила форума

  • В этом разделе создание новых тем Запрещено.
  • Для создания новых тем пользуйтесь Корневым разделом DVD и HD фильмы.
Начать новую темуОтветить на тему  [ Сообщений: 3 ] 
Торрент файл
Размер: 4.68 GB • Зарегистрирован: 4 года 1 месяц • Статус: T Временный релиз
Скачан: 33 раза • Желающих скачать: 0 • Поблагодарили: 9 раз
 Раздают: 0  |  0 KB/s  ]   Качают: 0  |  0 KB/s  ] 
 Полного источника не было 2 года 10 месяцев 
Сообщения
 Добавлено: 2012-10-30 12:05
Модератор
Аватара пользователя
Стаж: 6 лет 10 месяцев
Возраст: 33
Сообщений: 5908
Спасибок: 61259
Лайков: 3540
Изображение

Они были солдатами 2
Saints and Soldiers: Airborne Creed


Год выпуска: 2012
Страна: США
Жанр: военный
Продолжительность: 01:37:49
Перевод: Любительский (одноголосый)
Режиссер: Райан Литтл
Сценарий: Lamont Gray, Линкольн Хопп
Продюсер: Адам Абель, Райан Литтл, Джил Аглор, Стивен А. Ли
Оператор: Райан Литтл
Композитор: Дж Бейтман
В ролях: Корбин Оллред, Джасен Вэйд, Бренден Уитни, Линкольн Хопп, David Nibley, Нишелль Эйден, Эндрю В. Джонсон, Chris Provost, Иван Р. Бёрд, Лэнс Отто

Мировая премьера: 3 августа 2012
Описание: 15 августа 1944 года взвод 517-ого парашютно-десантного полка был заброшен на территорию южной Франции для поддержки наступления союзных войск на Берлин. Приземляясь на вражеской территории десантники вступают в непосредственное боестолкновение с противником. При выполнении миссии трое парашютистов встречаются с участниками группы Французского Сопротивления. Они решают помочь, рискуя своей жизнью, французским военным, попавшим в плен к врагу, и тем самым поддержать жизненное кредо десантника.

Изображение User Rating: 6.686 (51)
Изображение User Rating: 5.30 (372)
Раздача группы: Изображение
Изображение
Качество: BDRip, 720p
Формат: Matroska
Видео: AVC; 1280x544 (2.35:1); 4753 Kbps; 24 fps; 0,284 bit/pixel
Аудио №1: Russian; AC3; 448 Kbps; CBR; 6 ch
Аудио №2: DTS; 1509 Kbps; CBR; 6 ch; 16 bit
Оригинал
Субтитры: Romanian
mediainfo
General
Unique ID : 201699005845795048229641584410251808469 (0x97BDD0C556CD753585C52DDBAFF0CED5)
Complete name : F:Saints.and.Soldiers.Airborne.Creed.2012.L1.BDRip.720p..mkv
Format : Matroska
Format version : Version 2
File size : 4.68 GiB
Duration : 1h 37mn
Overall bit rate : 6 848 Kbps
Movie name : "Muxed By Goliaf"
Encoded date : UTC 2012-10-27 04:38:33
Writing application : mkvmerge v5.8.0 ('No Sleep / Pillow') built on Sep 2 2012 15:37:04
Writing library : libebml v1.2.3 + libmatroska v1.3.0

Video
ID : 1
Format : AVC
Format/Info : Advanced Video Codec
Format profile : High@L4.1
Format settings, CABAC : Yes
Format settings, ReFrames : 5 frames
Muxing mode : Header stripping
Codec ID : V_MPEG4/ISO/AVC
Duration : 1h 37mn
Bit rate : 4 890 Kbps
Width : 1 280 pixels
Height : 544 pixels
Display aspect ratio : 2.35:1
Frame rate : 24.000 fps
Color space : YUV
Chroma subsampling : 4:2:0
Bit depth : 8 bits
Scan type : Progressive
Bits/(Pixel*Frame) : 0.293
Stream size : 3.25 GiB (69%)
Title : RoSubbed-UNVEiL
Writing library : x264 core 125 r2200 999b753
Encoding settings : cabac=1 / ref=5 / deblock=1:0:0 / analyse=0x3:0x133 / me=umh / subme=7 / psy=1 / psy_rd=1.00:0.00 / mixed_ref=1 / me_range=16 / chroma_me=1 / trellis=1 / 8x8dct=1 / cqm=0 / deadzone=21,11 / fast_pskip=0 / chroma_qp_offset=-2 / threads=24 / lookahead_threads=4 / sliced_threads=0 / nr=0 / decimate=1 / interlaced=0 / bluray_compat=0 / constrained_intra=0 / bframes=3 / b_pyramid=2 / b_adapt=1 / b_bias=0 / direct=3 / weightb=1 / open_gop=0 / weightp=2 / keyint=240 / keyint_min=24 / scenecut=40 / intra_refresh=0 / rc_lookahead=40 / rc=2pass / mbtree=1 / bitrate=4890 / ratetol=1.0 / qcomp=0.60 / qpmin=10 / qpmax=51 / qpstep=4 / cplxblur=20.0 / qblur=0.5 / ip_ratio=1.40 / aq=1:1.00
Language : English
Default : Yes
Forced : No

Audio #1
ID : 2
Format : AC-3
Format/Info : Audio Coding 3
Mode extension : CM (complete main)
Muxing mode : Header stripping
Codec ID : A_AC3
Duration : 1h 37mn
Bit rate mode : Constant
Bit rate : 448 Kbps
Channel(s) : 6 channels
Channel positions : Front: L C R, Side: L R, LFE
Sampling rate : 44.1 KHz
Bit depth : 16 bits
Compression mode : Lossy
Stream size : 313 MiB (7%)
Title : VO
Language : Russian
Default : Yes
Forced : No

Audio #2
ID : 3
Format : DTS
Format/Info : Digital Theater Systems
Muxing mode : Header stripping
Codec ID : A_DTS
Duration : 1h 37mn
Bit rate mode : Constant
Bit rate : 1 510 Kbps
Channel(s) : 6 channels
Channel positions : Front: L C R, Side: L R, LFE
Sampling rate : 48.0 KHz
Bit depth : 16 bits
Compression mode : Lossy
Stream size : 1.03 GiB (22%)
Language : English
Default : No
Forced : No

Text
ID : 4
Format : UTF-8
Codec ID : S_TEXT/UTF8
Codec ID/Info : UTF-8 Plain Text
Language : Romanian
Default : Yes
Forced : No
Свернуть
Скриншоты

Изображение
Изображение
Изображение
Свернуть
_________________
ИзображениеИзображение Изображение
Изображение
 tany1984 и di-ys1 нравится это.
Не в сети
Профиль  
 Добавлено: 2012-11-04 21:42 (спустя 5 дней)
Стаж: 8 лет 7 месяцев
Сообщений: 15
Спасибок: 72
Не могу ничем открыть.....
Не в сети
Профиль  
 Добавлено: 2012-11-04 22:00 (спустя 17 минут)
Аватара пользователя
Стаж: 8 лет 11 месяцев
Сообщений: 515
Спасибок: 39
Лайков: 49

raptor_c4:

Не могу ничем открыть.....


Немножко неверно, ни Не можешь, а не хочешь если быть точнее. Я вот это могу открыть любым допотопным плейером, даже кристал плейером которым ещё в девяностых матрицу смотрел, да не хочу, такое дерьмо кушайте сами.
Они были солдатами, я был онанистом, ну и что дальше. Всем фиолетово. Детский сад и то интереснее.
Не в сети
Профиль  
Начать новую темуОтветить на тему  [ Сообщений: 3 ] 
Вы не можете начинать темы
Вы не можете отвечать на сообщения
Вы не можете редактировать свои сообщения
Вы не можете удалять свои сообщения