Правила форума

  • В этом разделе создание новых тем Запрещено.
  • Для создания новых тем пользуйтесь Корневым разделом DVD и HD фильмы.
Начать новую темуОтветить на тему  [ Сообщений: 12 ] 
Торрент файл
Размер: 7.92 GB • Зарегистрирован: 1 год 4 месяца • Статус: Проверено
Скачан: 245 раз • Желающих скачать: 0 • Поблагодарили: 46 раз
 Раздают: 1  |  0 KB/s  ]   Качают: 0  |  0 KB/s  ] 
Сообщения
 Добавлено: 2015-07-30 04:16
DVD Release Group
Аватара пользователя
Стаж: 7 лет 1 месяц
Сообщений: 3561
Спасибок: 247482
Лайков: 1020
Оно

It Follows


Изображение


Год выпуска: 2014
Страна: США
Жанр: Ужасы, детектив
Продолжительность: 01:40:12
Перевод: Профессиональный (полное дублирование)
Режиссер: Дэвид Роберт Митчелл
В ролях: Кейр Гилкрист, Лорен Басс, Оливия Луккарди, Лили Сепе, Майка Монро, Джейк Вири, Дэниэл Дзоватто, Чарльз Гертнер, Бэйли Спрай
Описание: После сексуальной связи 19-летнюю девушку по имени Джей начинают мучать странные видения и непреодолимое чувство того, что кто-то или что-то за ней следит...
Изображение Изображение
Sample:
http://sendfile.su/1141560
Качество: BDRip 1080p
Формат: MKV
Видео кодек: H.264
Аудио кодек: AC3, DTS
Видео: 1920x800 23.98fps 9420kbps
Аудио:
Аудио Rus: AC3 48kHz 6ch 384Kbps
Аудио Eng: DTS 48kHz 6ch 1510Kbps
"MediaInfo"
Формат : Matroska
Версия формата : Version 2
Размер файла : 7,92 Гбайт
Продолжительность : 1 ч. 40 м.
Общий поток : 11,3 Мбит/сек
Дата кодирования : UTC 2015-07-29 23:27:19
Программа кодирования : mkvmerge v8.2.0 ('World of Adventure') 64bit
Библиотека кодирования : libebml v1.3.1 + libmatroska v1.4.2
DURATION : 01:40:12.992000000
NUMBER_OF_FRAMES : 187906
NUMBER_OF_BYTES : 288623616
_STATISTICS_WRITING_APP : mkvmerge v8.2.0 ('World of Adventure') 64bit
_STATISTICS_WRITING_DATE_UTC : 2015-07-29 23:27:19
_STATISTICS_TAGS : BPS DURATION NUMBER_OF_FRAMES NUMBER_OF_BYTES

Видео
Идентификатор : 1
Формат : AVC
Формат/Информация : Advanced Video Codec
Профиль формата : High@L4.1
Параметр CABAC формата : Да
Параметр ReFrames формата : 5 кадров
Идентификатор кодека : V_MPEG4/ISO/AVC
Продолжительность : 1 ч. 40 м.
Битрейт : 9420 Кбит/сек
Ширина : 1920 пикселей
Высота : 800 пикселей
Соотношение сторон : 2,40:1
Режим частоты кадров : Постоянный
Частота кадров : 23,976 кадра/сек
Цветовое пространство : YUV
Субдискретизация насыщенности : 4:2:0
Битовая глубина : 8 бит
Тип развёртки : Прогрессивная
Бит/(Пиксели*Кадры) : 0.256
Размер потока : 6,44 Гбайт (81%)
Библиотека кодирования : x264 core 146 r2538 121396c
Настройки программы : cabac=1 / ref=5 / deblock=1:-3:-3 / analyse=0x3:0x113 / me=umh / subme=8 / psy=1 / psy_rd=1.00:0.00 / mixed_ref=1 / me_range=16 / chroma_me=1 / trellis=1 / 8x8dct=1 / cqm=0 / deadzone=21,11 / fast_pskip=1 / chroma_qp_offset=-2 / threads=18 / lookahead_threads=3 / sliced_threads=0 / nr=0 / decimate=1 / interlaced=0 / bluray_compat=0 / constrained_intra=0 / bframes=3 / b_pyramid=2 / b_adapt=2 / b_bias=0 / direct=3 / weightb=1 / open_gop=0 / weightp=2 / keyint=240 / keyint_min=24 / scenecut=40 / intra_refresh=0 / rc_lookahead=50 / rc=2pass / mbtree=1 / bitrate=9420 / ratetol=1.0 / qcomp=0.60 / qpmin=0 / qpmax=69 / qpstep=4 / cplxblur=20.0 / qblur=0.5 / ip_ratio=1.40 / aq=1:1.00
Язык : English
Default : Да
Forced : Нет
DURATION : 01:40:13.008000000
NUMBER_OF_FRAMES : 144168
NUMBER_OF_BYTES : 7078035541
_STATISTICS_WRITING_APP : mkvmerge v8.2.0 ('World of Adventure') 64bit
_STATISTICS_WRITING_DATE_UTC : 2015-07-29 23:27:19
_STATISTICS_TAGS : BPS DURATION NUMBER_OF_FRAMES NUMBER_OF_BYTES

Аудио #1
Идентификатор : 2
Формат : AC-3
Формат/Информация : Audio Coding 3
Расширение режима : CM (complete main)
Параметр Endianness формата : Big
Идентификатор кодека : A_AC3
Продолжительность : 1 ч. 40 м.
Вид битрейта : Постоянный
Битрейт : 384 Кбит/сек
Каналы : 6 каналов
Расположение каналов : Front: L C R, Side: L R, LFE
Частота : 48,0 КГц
Битовая глубина : 16 бит
Метод сжатия : С потерями
Размер потока : 275 Мбайт (3%)
Язык : Russian
Default : Да
Forced : Нет

Аудио #2
Идентификатор : 3
Формат : DTS
Формат/Информация : Digital Theater Systems
Режим : 16
Параметр Endianness формата : Big
Идентификатор кодека : A_DTS
Продолжительность : 1 ч. 40 м.
Вид битрейта : Постоянный
Битрейт : 1509 Кбит/сек
Каналы : 6 каналов
Расположение каналов : Front: L C R, Side: L R, LFE
Частота : 48,0 КГц
Битовая глубина : 24 бит
Метод сжатия : С потерями
Размер потока : 1,06 Гбайт (13%)
Язык : English
Default : Нет
Forced : Нет

Меню
00:00:00.000 : en:00:00:00.000
00:03:53.150 : en:00:03:53.150
00:08:46.901 : en:00:08:46.901
00:13:58.671 : en:00:13:58.671
00:22:05.115 : en:00:22:05.115
00:27:20.931 : en:00:27:20.931
00:32:12.514 : en:00:32:12.514
00:44:38.467 : en:00:44:38.467
00:49:14.994 : en:00:49:14.994
00:53:58.777 : en:00:53:58.777
01:02:48.056 : en:01:02:48.056
01:07:45.019 : en:01:07:45.019
01:16:13.485 : en:01:16:13.485
01:26:19.174 : en:01:26:19.174
01:31:18.681 : en:01:31:18.681
01:35:42.195 : en:01:35:42.195
Свернуть

"Скриншоты"
Изображение
Изображение
Изображение
Свернуть
Не в сети
Профиль  
 Добавлено: 2015-07-30 21:33 (спустя 17 часов)
Аватара пользователя
Стаж: 6 лет 9 месяцев
Возраст: 30
Сообщений: 90
Лайков: 6
Бредовый фильм ,ни конца ни начала.Я ждал клоуна Стивена Кинга ,ждал реинкарнацию ОНО .Но с первых же минут я понял что это совсем не то....Одно только чего стоит что оно передается половым путем.Короче не верите смотрите сами.
 Snake88 нравится это.
Не в сети
Профиль  
 Добавлено: 2015-07-30 22:54 (спустя 1 час 20 минут)
Стаж: 9 лет
Сообщений: 312
Спасибок: 347
Лайков: 9

Mahaon_ultra:

Бредовый фильм.Одно только чего стоит что оно передается половым путем.

Спасибо! Теперь то уж точно смотреть нечего...
Не в сети
Профиль  
 Добавлено: 2015-08-02 01:36 (спустя 2 дня 2 часа)
Аватара пользователя
Стаж: 9 лет 1 месяц
Сообщений: 2152
Спасибок: 778
Лайков: 14
Mahaon_ultra
Что-то похожее уже было в данном жанре, правда там "зараза" передавалась через поцелуи, т.е. через слюну. И там были пришельцы, если я правильно помню, и все действие происходило в колледже - названия фильма я не помню, но он был реально не плохой. Так что я бы не делал из этого поспешных выводов. В любом случае посмотрю, тем более давно не смотрел ужастики.
_________________
PSN
Изображение
Свернуть
Изображение
Не в сети
Профиль  
 Добавлено: 2015-08-02 11:14 (спустя 9 часов)
Аватара пользователя
Стаж: 8 лет 11 месяцев
Возраст: 29
Сообщений: 310
Спасибок: 540
Лайков: 48
Наглядное пособие по тому, как из девушки сделать шлюху, которой только и нужно, чтоб запрыгнуть на следующий детородный орган и покрутиться на его оси :-D
_________________
Как гласит китайская мудрость: "Если твоя философия и принципы не приносят тебе пользы - выкинь ее. Кху-Ям"
Не в сети
Профиль  
 Добавлено: 2015-08-02 21:15 (спустя 10 часов)
Аватара пользователя
Стаж: 9 лет 1 месяц
Сообщений: 2152
Спасибок: 778
Лайков: 14
Кстати, странно, что в фильме не рассказано про причину этого "вируса". Посмотреть ночью можно - я не жалею.
_________________
PSN
Изображение
Свернуть
Изображение
Не в сети
Профиль  
 Добавлено: 2015-08-04 23:16 (спустя 2 дня 2 часа)
Кинокомментатор
Аватара пользователя
Стаж: 9 лет 1 месяц
Сообщений: 1332
Лайков: 54
Очень! ОЧЕНЬ СТРАШНОЕ оно...
сюжет про передачу сексом это жесть... но вы представьте... что за вами всегда кто то идёт...
и не важно, что есть куча весомых предложений как с ним справиться... но его нельзя перехитрить!) можно только убежать...
8/10 для ужасов это десятка!
_________________
Я ВКонтакте
Не в сети
Профиль  
 Добавлено: 2015-08-04 23:42 (спустя 25 минут)
Аватара пользователя
Стаж: 8 лет 1 месяц
Сообщений: 346
Спасибок: 85
Лайков: 7
Очень атмосферный фильм, снятый, как мне показалось, в стиле ужасов 70-80-х. Атмосферу напряжения в этом фильме держит всё: музыка, цвета, сцены пейзажей, короткие диалоги или даже просто молчаливые сцены. Совершенно не ожидал от фильма такого уровня, было действительно жутко. И ,что очень удивительно, это не ремейк какого-то старого фильма, всё же есть более-менее свежие идеи у сценаристов.
_________________
Будь проще, и жить будет легче!
Не в сети
Профиль  
 Добавлено: 2015-08-14 00:00 (спустя 9 дней)
Аватара пользователя
Стаж: 8 лет 2 месяца
Сообщений: 358
Спасибок: 744
Лайков: 13
Мне тоже фильм понравился, были моменты весьма пугающие, интересный саундтрек...
Не в сети
Профиль  
 Добавлено: 2015-08-20 04:36 (спустя 6 дней)
Console V.I.P.
Аватара пользователя
Стаж: 9 лет
Сообщений: 1456
Спасибок: 690
Лайков: 12

L3n1n:

Mahaon_ultra
Что-то похожее уже было в данном жанре, правда там "зараза" передавалась через поцелуи, т.е. через слюну. И там были пришельцы, если я правильно помню, и все действие происходило в колледже - названия фильма я не помню, но он был реально не плохой. Так что я бы не делал из этого поспешных выводов. В любом случае посмотрю, тем более давно не смотрел ужастики.
Это наверное про "Факультет", хотя там не через поцелуи вроде зараза передавалась, а с каким-то напитком.
_________________
МАСТЕР ПО ИГРОВЫМ КОНСОЛЯМ
ПРОДАЖА И МОДЕРНИЗАЦИЯ ИГРОВЫХ КОНСОЛЕЙ

УСЛУГИ И КОНТАКТЫ (нажать чтобы посмотреть)
icq: 378004868 тел: 89049149337
 L3n1n нравится это.
Не в сети
Профиль  
 Добавлено: 2015-12-30 13:16 (спустя 4 месяца 10 дней)
Top-releaser
Аватара пользователя
Стаж: 7 лет 4 месяца
Возраст: 38
Сообщений: 5347
Спасибок: 10068
Лайков: 2936
Cкрытый текст
Бредовый фильм, призрака из пистолета застрелили, хотели убить его с помощью телевизоров и фенов, ни причин, ни разгадки, и интересно, почему все зациклилось вокруг главной героини? Или на всей Земле только она занималась сексом? :-D
Свернуть
Не в сети
Профиль  
 Добавлено: 2015-12-30 15:27 (спустя 2 часа 10 минут)
Стаж: 7 лет 8 месяцев
Сообщений: 195
Лайков: 55

Investigator2009:

Cкрытый текст
Бредовый фильм, призрака из пистолета застрелили, хотели убить его с помощью телевизоров и фенов, ни причин, ни разгадки, и интересно, почему все зациклилось вокруг главной героини? Или на всей Земле только она занималась сексом? :-D
Свернуть
Cкрытый текст
Как раз таки не убили. Подозреваю, что фигура позади двух девушек на последних секундах фильма - как раз таки возвратившееся оно.
Про героиню - кому передали, вокруг того сюжет и выстроен. Сегодня заразилась она, завтра, глядишь, черед и до Вас доберется... )
Трое на катере так же были ею инфицированы. Подозреваю, что "оно" с ними расправилось и вновь вернулось к девушке.
Сцена в бассейне - да, бредовая.
Свернуть
Кино, в целом, очень даже отличное.
Не в сети
Профиль  
Начать новую темуОтветить на тему  [ Сообщений: 12 ] 
Вы не можете начинать темы
Вы не можете отвечать на сообщения
Вы не можете редактировать свои сообщения
Вы не можете удалять свои сообщения