Правила форума

  • В этом разделе создание новых тем Запрещено.
  • Для создания новых тем пользуйтесь Корневым разделом DVD и HD фильмы.
Начать новую темуОтветить на тему  [ Сообщений: 2 ] 
Торрент файл
Размер: 8.22 GB • Зарегистрирован: 5 лет • Статус: Проверено
Скачан: 155 раз • Желающих скачать: 0 • Поблагодарили: 16 раз
 Раздают: 0  |  0 KB/s  ]   Качают: 0  |  0 KB/s  ] 
 Полного источника не было 3 года 2 месяца 
Сообщения
 Добавлено: 2011-11-18 00:29
Руководитель релиз-группы
Аватара пользователя
Стаж: 8 лет 6 месяцев
Возраст: 25
Сообщений: 7578
Спасибок: 51913
Лайков: 14
Изображение

Опасный квартал / The Son of No One


Год выпуска: 2011
Страна: США
Слоган: «Serve. Protect. Lie.»

Жанр: триллер, драма, криминал
Продолжительность: 01:33:46
Перевод: Профессиональный (полное дублирование)
Режиссер: Дито Монтиель

В ролях: Ченнинг Татум, Трэйси Морган, Кэти Холмс, Рэй Лиотта, Жюльет Бинош, Аль Пачино, Джеймс Рэнсон, Урсула Паркер, Брайан Гилберт, Джэйк Черри, Симона Джой Джонс, Лемон
Описание: Главный герой - молодой полицейский, приписанный к участку в районе, где в основном проживает рабочий класс. Герой вырос в этом районе, и теперь, когда он вернулся сюда стражем закона, на поверхности оказался некий секрет, который может уничтожить как семью копа, так и его самого.
Релиз группы: Изображение
Качество: BDRip 1080p
Формат: MKV
Видео: AVC; 1920х816 (2.35:1); 10.6 mb/s; 23,976 fps; 0,300 bpp
Аудио №1: Russian: AC3, 48kHz, 448 kb/s (6 ch)
Аудио №2: English: DTS 48kHz 6ch 1510Kbps
"MediaInfo"
Полное имя                       : The.Son.Of.No.One.2011.D.BDRip.1080p.[uniongang.tv].mkv
Формат                           : Matroska
Версия формата                   : Version 2
Размер файла                     : 8,22 Гбайт
Продолжительность                : 1 ч. 33 м.
Общий поток                      : 12,5 Мбит/сек
Название фильма                  : Опасный квартал / The Son of No One (2011) .....:::UNIONGANG:::.....
Дата кодирования                 : UTC 2011-11-17 19:45:29
Программа кодирования            : mkvmerge v5.0.1 ('Es ist Sommer') built on Oct  9 2011 11:55:43
Библиотека кодирования           : libebml v1.2.2 + libmatroska v1.3.0

Видео
Идентификатор                    : 1
Формат                           : AVC
Формат/Информация                : Advanced Video Codec
Профиль формата                  : High@L4.1
Параметр CABAC формата           : Да
Параметр ReFrames формата        : 5 кадров
Идентификатор кодека             : V_MPEG4/ISO/AVC
Продолжительность                : 1 ч. 33 м.
Битрейт                          : 10,6 Мбит/сек
Ширина                           : 1920 пикселей
Высота                           : 816 пикселей
Соотношение сторон               : 2,35:1
Частота кадров                   : 23,976 кадра/сек
Цветовое пространство            : YUV
Субдискретизация насыщенности    : 4:2:0
Битовая глубина                  : 8 бит
Тип развёртки                    : Прогрессивная
Бит/(Пиксели*Кадры)              : 0.282
Размер потока                    : 6,77 Гбайт (82%)
Заголовок                        : The.Son.Of.No.One.2011.BluRay.1080p.DTS.x264-CHD
Библиотека кодирования           : x264 core 116 r2074 2641b9e
Настройки программы              : cabac=1 / ref=5 / deblock=1:-3:-3 / analyse=0x3:0x113 / me=umh / subme=11 / psy=1 / psy_rd=1.10:0.15 / mixed_ref=1 / me_range=32 / chroma_me=1 / trellis=2 / 8x8dct=1 / cqm=2 / deadzone=21,11 / fast_pskip=0 / chroma_qp_offset=-2 / threads=12 / sliced_threads=0 / nr=0 / decimate=1 / interlaced=0 / bluray_compat=0 / constrained_intra=0 / bframes=6 / b_pyramid=2 / b_adapt=2 / b_bias=0 / direct=3 / weightb=1 / open_gop=0 / weightp=2 / keyint=250 / keyint_min=23 / scenecut=40 / intra_refresh=0 / rc_lookahead=60 / rc=2pass / mbtree=1 / bitrate=10591 / ratetol=1.0 / qcomp=0.60 / qpmin=1 / qpmax=63 / qpstep=4 / cplxblur=20.0 / qblur=0.5 / vbv_maxrate=40000 / vbv_bufsize=30000 / nal_hrd=none / ip_ratio=1.40 / aq=1:1.00
Язык                             : English
Default                          : Да
Forced                           : Да

Аудио #1
Идентификатор                    : 2
Формат                           : AC-3
Формат/Информация                : Audio Coding 3
Расширение режима                : CM (complete main)
Идентификатор кодека             : A_AC3
Продолжительность                : 1 ч. 33 м.
Вид битрейта                     : Постоянный
Битрейт                          : 448 Кбит/сек
Каналы                           : 6 каналов
Расположение каналов             : Front: L C R, Side: L R, LFE
Частота                          : 48,0 КГц
Битовая глубина                  : 16 бит
Метод сжатия                     : С потерями
Задержка видео                   : 24 мс.
Размер потока                    : 301 Мбайт (4%)
Заголовок                        : AC3 5.1 @ 448 kb/s [Russian DUB, R5]
Язык                             : Russian
Default                          : Да
Forced                           : Да

Аудио #2
Идентификатор                    : 3
Формат                           : DTS
Формат/Информация                : Digital Theater Systems
Идентификатор кодека             : A_DTS
Продолжительность                : 1 ч. 33 м.
Вид битрейта                     : Постоянный
Битрейт                          : 1510 Кбит/сек
Каналы                           : 6 каналов
Расположение каналов             : Front: L C R, Side: L R, LFE
Частота                          : 48,0 КГц
Битовая глубина                  : 16 бит
Метод сжатия                     : С потерями
Размер потока                    : 1013 Мбайт (12%)
Заголовок                        : DTS 5.1 @ 1510 kb/s [english]
Язык                             : English
Default                          : Нет
Forced                           : Нет

Текст
Идентификатор                    : 4
Формат                           : UTF-8
Идентификатор кодека             : S_TEXT/UTF8
Идентификатор кодека/Информация  : UTF-8 Plain Text
Заголовок                        : English
Язык                             : English
Default                          : Нет
Forced                           : Нет
Свернуть
"Скриншоты"

Изображение
Изображение
Изображение
Свернуть
Не в сети
Профиль  
 Добавлено: 2011-11-22 08:23 (спустя 4 дня)
Стаж: 7 лет 5 месяцев
Сообщений: 7
Фильм скучный....
Не в сети
Профиль  
Начать новую темуОтветить на тему  [ Сообщений: 2 ] 
Вы не можете начинать темы
Вы не можете отвечать на сообщения
Вы не можете редактировать свои сообщения
Вы не можете удалять свои сообщения