Правила форума

  • В этом разделе создание новых тем Запрещено.
  • Для создания новых тем пользуйтесь Корневым разделом DVD и HD фильмы.
Начать новую темуОтветить на тему  [ Сообщений: 4 ] 
Торрент файл
Размер: 20.11 GB • Зарегистрирован: 3 года 10 месяцев • Статус: Проверено
Скачан: 166 раз • Желающих скачать: 0 • Поблагодарили: 45 раз
 Раздают: 0  |  0 KB/s  ]   Качают: 0  |  0 KB/s  ] 
 Полного источника не было 2 месяца 18 дней 
Сообщения
 Добавлено: 2013-02-03 19:35
Модератор релиз-группы
Аватара пользователя
Стаж: 6 лет 5 месяцев
Возраст: 25
Сообщений: 622
Спасибок: 10257
Лайков: 7
Операция «Арго» / Argo

Изображение


Год выпуска: 2012
Страна: США, Warner Bros. Pictures
Жанр: Триллер, драма, история
Продолжительность: 02:00:22
Перевод: Профессиональный (полное дублирование)
Субтитры: Английские

Режиссёр: Бен Аффлек
В ролях: Бен Аффлек, Брайан Крэнстон, Алан Аркин, Джон Гудмен, Виктор Гарбер, Тейт Донован, Клеа Дюваль, Скут МакНэйри, Рори Кокрейн, Кристофер Денхам
Описание: 4 ноября 1979 г. революция в Иране достигает своего апогея, военные штурмуют посольство США в Тегеране и берут в заложники 52 американца. Но в этом хаосе шестерым удается ускользнуть и найти прибежище в доме канадского посла. Понимая, что их обнаружение и, вероятнее всего, убийство — всего лишь вопрос времени, Тони Мендес, специалист ЦРУ по тайному вывозу людей из страны, предлагает рискованный план безопасной эвакуации. План столь невероятен, что такое бывает только в кино.

Изображение 8.1/10 (9,191 votes)
Раздача группы: Изображение
Качество: Blu-Ray Remux (1080p)
Видео: MPEG-4 AVC, 22.4 Мбит/с, 1920x1080
Аудио: Русский (AC3, 6 ch, 384 Кбит/с), английский (AC3, 6 ch, 640 Кбит/с)
Размер: 20.11 ГБ
BDInfo
General
Unique ID : 238579416735187686200136832197574930021 (0xB37CB96A71F49CC0AF35CA56AC2A2E65)
Complete name : E:\кино\Argo.2012.Blu-Ray.Remux.1080p.mkv
Format : Matroska
Format version : Version 4 / Version 2
File size : 20.1 GiB
Duration : 2h 0mn
Overall bit rate mode : Variable
Overall bit rate : 23.9 Mbps
Movie name : PiratCa - HDTracker
Encoded date : UTC 2013-02-02 04:38:17
Writing application : mkvmerge v6.0.0 ('Coming Up For Air') built on Jan 20 2013 09:52:00
Writing library : libebml v1.3.0 + libmatroska v1.4.0

Video
ID : 1
Format : AVC
Format/Info : Advanced Video Codec
Format profile : High@L4.1
Format settings, CABAC : Yes
Format settings, ReFrames : 2 frames
Codec ID : V_MPEG4/ISO/AVC
Duration : 2h 0mn
Bit rate mode : Variable
Bit rate : 22.4 Mbps
Width : 1 920 pixels
Height : 1 080 pixels
Display aspect ratio : 16:9
Frame rate : 23.976 fps
Color space : YUV
Chroma subsampling : 4:2:0
Bit depth : 8 bits
Scan type : Progressive
Bits/(Pixel*Frame) : 0.451
Stream size : 18.9 GiB (94%)
Language : English
Default : Yes
Forced : No

Audio #1
ID : 2
Format : AC-3
Format/Info : Audio Coding 3
Mode extension : CM (complete main)
Format settings, Endianness : Big
Codec ID : A_AC3
Duration : 2h 0mn
Bit rate mode : Constant
Bit rate : 384 Kbps
Channel(s) : 6 channels
Channel positions : Front: L C R, Side: L R, LFE
Sampling rate : 48.0 KHz
Bit depth : 16 bits
Compression mode : Lossy
Stream size : 331 MiB (2%)
Title : Dub
Language : Russian
Default : Yes
Forced : Yes

Audio #2
ID : 3
Format : AC-3
Format/Info : Audio Coding 3
Mode extension : CM (complete main)
Format settings, Endianness : Big
Codec ID : A_AC3
Duration : 2h 0mn
Bit rate mode : Constant
Bit rate : 640 Kbps
Channel(s) : 6 channels
Channel positions : Front: L C R, Side: L R, LFE
Sampling rate : 48.0 KHz
Bit depth : 16 bits
Compression mode : Lossy
Stream size : 551 MiB (3%)
Title : Original
Language : English
Default : No
Forced : No

Text #1
ID : 4
Format : PGS
Muxing mode : zlib
Codec ID : S_HDMV/PGS
Codec ID/Info : The same subtitle format used on BDs/HD-DVDs
Language : English
Default : Yes
Forced : No

Text #2
ID : 5
Format : PGS
Muxing mode : zlib
Codec ID : S_HDMV/PGS
Codec ID/Info : The same subtitle format used on BDs/HD-DVDs
Language : English
Default : No
Forced : No

Text #3
ID : 6
Format : PGS
Muxing mode : zlib
Codec ID : S_HDMV/PGS
Codec ID/Info : The same subtitle format used on BDs/HD-DVDs
Language : English
Default : No
Forced : No

Menu
00:00:00.000 : en:00:00:00.000
00:12:39.759 : en:00:12:39.759
00:19:36.092 : en:00:19:36.092
00:28:59.571 : en:00:28:59.571
00:42:48.608 : en:00:42:48.608
00:50:01.540 : en:00:50:01.540
01:00:00.055 : en:01:00:00.055
01:09:09.520 : en:01:09:09.520
01:19:46.824 : en:01:19:46.824
01:30:14.117 : en:01:30:14.117
01:39:00.852 : en:01:39:00.852
01:51:34.771 : en:01:51:34.771
Свернуть

Скриншоты
Изображение
Изображение
Изображение
Изображение
Свернуть
_________________
Изображение
Не в сети
Профиль  
 Добавлено: 2013-02-11 17:47 (спустя 7 дней)
Кинокомментатор
Аватара пользователя
Стаж: 8 лет 1 месяц
Сообщений: 1325
Спасибок: 794
Лайков: 35
Подскажите, в качестве видео говориться о разрешении 1920 х 1080, а картинка на экране телевизора всё равно неполная. Присутствуют чёрные полоски снизу и сверху.
Не в сети
Профиль  
 Добавлено: 2013-02-12 01:09 (спустя 7 часов)
Top-seeder
Аватара пользователя
Стаж: 8 лет 11 месяцев
Возраст: 29
Сообщений: 247
Спасибок: 123
Черные полоски присутствуют изначально. Просто в кинотеатрах видео как правило уже(в смысле узкий) показывают, и далеко не все фильмы на Bluray выходят в чистном FullHD. Я так думаю, что полосы добавляют при создании диска, чтобы телек не пытался масштабировать видео.
Не в сети
Профиль  
 Добавлено: 2013-03-12 22:14 (спустя 1 месяц)
Кинокомментатор
Аватара пользователя
Стаж: 8 лет 1 месяц
Сообщений: 1325
Спасибок: 794
Лайков: 35

Fint:

Черные полоски присутствуют изначально. Просто в кинотеатрах видео как правило уже(в смысле узкий) показывают, и далеко не все фильмы на Bluray выходят в чистном FullHD. Я так думаю, что полосы добавляют при создании диска, чтобы телек не пытался масштабировать видео.

Пасиб!
Не в сети
Профиль  
Начать новую темуОтветить на тему  [ Сообщений: 4 ] 
Вы не можете начинать темы
Вы не можете отвечать на сообщения
Вы не можете редактировать свои сообщения
Вы не можете удалять свои сообщения